  0
SECTION
  2
HEADER
  9
$ACADVER
  1
AC1014
  9
$ACADMAINTVER
 70
     9
  9
$DWGCODEPAGE
  3
ANSI_1252
  9
$INSBASE
 10
0.0
 20
0.0
 30
0.0
  9
$EXTMIN
 10
1559.736260429591
 20
1019.107441555736
 30
0.0
  9
$EXTMAX
 10
1571.567661711304
 20
1035.084164055699
 30
0.0
  9
$LIMMIN
 10
0.0
 20
0.0
  9
$LIMMAX
 10
4800.0
 20
3600.0
  9
$ORTHOMODE
 70
     1
  9
$REGENMODE
 70
     1
  9
$FILLMODE
 70
     1
  9
$QTEXTMODE
 70
     0
  9
$MIRRTEXT
 70
     0
  9
$DRAGMODE
 70
     2
  9
$LTSCALE
 40
2.0
  9
$OSMODE
 70
    37
  9
$ATTMODE
 70
     1
  9
$TEXTSIZE
 40
4.5
  9
$TRACEWID
 40
0.05
  9
$TEXTSTYLE
  7
ROMANS
  9
$CLAYER
  8
DEFPOINTS
  9
$CELTYPE
  6
BYLAYER
  9
$CECOLOR
 62
   256
  9
$CELTSCALE
 40
1.0
  9
$DELOBJ
 70
     1
  9
$DISPSILH
 70
     0
  9
$DIMSCALE
 40
2.6
  9
$DIMASZ
 40
0.125
  9
$DIMEXO
 40
0.0625
  9
$DIMDLI
 40
0.0625
  9
$DIMRND
 40
0.0
  9
$DIMDLE
 40
0.0625
  9
$DIMEXE
 40
0.0625
  9
$DIMTP
 40
0.0
  9
$DIMTM
 40
0.0
  9
$DIMTXT
 40
0.09375
  9
$DIMCEN
 40
0.0625
  9
$DIMTSZ
 40
0.0
  9
$DIMTOL
 70
     0
  9
$DIMLIM
 70
     0
  9
$DIMTIH
 70
     0
  9
$DIMTOH
 70
     0
  9
$DIMSE1
 70
     0
  9
$DIMSE2
 70
     0
  9
$DIMTAD
 70
     1
  9
$DIMZIN
 70
     3
  9
$DIMBLK
  1

  9
$DIMASO
 70
     1
  9
$DIMSHO
 70
     1
  9
$DIMPOST
  1

  9
$DIMAPOST
  1

  9
$DIMALT
 70
     0
  9
$DIMALTD
 70
     2
  9
$DIMALTF
 40
25.4
  9
$DIMLFAC
 40
1.0
  9
$DIMTOFL
 70
     0
  9
$DIMTVP
 40
0.0
  9
$DIMTIX
 70
     0
  9
$DIMSOXD
 70
     0
  9
$DIMSAH
 70
     1
  9
$DIMBLK1
  1
ARCHTICK
  9
$DIMBLK2
  1
ARCHTICK
  9
$DIMSTYLE
  2
DIM-2
  9
$DIMCLRD
 70
     0
  9
$DIMCLRE
 70
     0
  9
$DIMCLRT
 70
     0
  9
$DIMTFAC
 40
1.0
  9
$DIMGAP
 40
0.0625
  9
$DIMJUST
 70
     0
  9
$DIMSD1
 70
     0
  9
$DIMSD2
 70
     0
  9
$DIMTOLJ
 70
     1
  9
$DIMTZIN
 70
     0
  9
$DIMALTZ
 70
     0
  9
$DIMALTTZ
 70
     0
  9
$DIMFIT
 70
     5
  9
$DIMUPT
 70
     0
  9
$DIMUNIT
 70
     4
  9
$DIMDEC
 70
     4
  9
$DIMTDEC
 70
     4
  9
$DIMALTU
 70
     2
  9
$DIMALTTD
 70
     2
  9
$DIMTXSTY
  7
ROMANS
  9
$DIMAUNIT
 70
     0
  9
$LUNITS
 70
     4
  9
$LUPREC
 70
     4
  9
$SKETCHINC
 40
0.1
  9
$FILLETRAD
 40
0.0
  9
$AUNITS
 70
     0
  9
$AUPREC
 70
     0
  9
$MENU
  1
.
  9
$ELEVATION
 40
0.0
  9
$PELEVATION
 40
0.0
  9
$THICKNESS
 40
0.0
  9
$LIMCHECK
 70
     0
  9
$CHAMFERA
 40
0.0
  9
$CHAMFERB
 40
0.0
  9
$CHAMFERC
 40
1.0
  9
$CHAMFERD
 40
0.0
  9
$SKPOLY
 70
     0
  9
$TDCREATE
 40
2455134.28469816
  9
$TDUPDATE
 40
2455328.293561736
  9
$TDINDWG
 40
0.2713374884
  9
$TDUSRTIMER
 40
0.2713367708
  9
$USRTIMER
 70
     1
  9
$ANGBASE
 50
0.0
  9
$ANGDIR
 70
     0
  9
$PDMODE
 70
    34
  9
$PDSIZE
 40
0.0
  9
$PLINEWID
 40
0.0
  9
$COORDS
 70
     1
  9
$SPLFRAME
 70
     0
  9
$SPLINETYPE
 70
     6
  9
$SPLINESEGS
 70
     8
  9
$ATTDIA
 70
     0
  9
$ATTREQ
 70
     1
  9
$HANDLING
 70
     1
  9
$HANDSEED
  5
504A
  9
$SURFTAB1
 70
     6
  9
$SURFTAB2
 70
     6
  9
$SURFTYPE
 70
     6
  9
$SURFU
 70
     6
  9
$SURFV
 70
     6
  9
$UCSNAME
  2

  9
$UCSORG
 10
0.0
 20
0.0
 30
0.0
  9
$UCSXDIR
 10
1.0
 20
0.0
 30
0.0
  9
$UCSYDIR
 10
0.0
 20
1.0
 30
0.0
  9
$PUCSNAME
  2

  9
$PUCSORG
 10
0.0
 20
0.0
 30
0.0
  9
$PUCSXDIR
 10
1.0
 20
0.0
 30
0.0
  9
$PUCSYDIR
 10
0.0
 20
1.0
 30
0.0
  9
$USERI1
 70
     0
  9
$USERI2
 70
     0
  9
$USERI3
 70
     0
  9
$USERI4
 70
     0
  9
$USERI5
 70
     0
  9
$USERR1
 40
0.0
  9
$USERR2
 40
0.0
  9
$USERR3
 40
0.0
  9
$USERR4
 40
0.0
  9
$USERR5
 40
0.0
  9
$WORLDVIEW
 70
     1
  9
$SHADEDGE
 70
     3
  9
$SHADEDIF
 70
    70
  9
$TILEMODE
 70
     0
  9
$MAXACTVP
 70
    48
  9
$PINSBASE
 10
0.0
 20
0.0
 30
0.0
  9
$PLIMCHECK
 70
     0
  9
$PEXTMIN
 10
-0.0003889962027905
 20
-0.0005034068506795
 30
-0.0000000000000058
  9
$PEXTMAX
 10
8.500389154536087
 20
11.00050361175257
 30
0.0000000000000104
  9
$PLIMMIN
 10
0.0562725145632888
 20
0.0690491114654651
  9
$PLIMMAX
 10
8.447017216265106
 20
10.92765997166995
  9
$UNITMODE
 70
     0
  9
$VISRETAIN
 70
     1
  9
$PLINEGEN
 70
     0
  9
$PSLTSCALE
 70
     0
  9
$TREEDEPTH
 70
  3020
  9
$PICKSTYLE
 70
     1
  9
$CMLSTYLE
  2
STANDARD
  9
$CMLJUST
 70
     0
  9
$CMLSCALE
 40
1.0
  9
$PROXYGRAPHICS
 70
     1
  9
$MEASUREMENT
 70
     0
  0
ENDSEC
  0
SECTION
  2
CLASSES
  0
CLASS
  1
LWPOLYLINE
  2
AcDbPolyline
  3
AutoCAD 2000
 90
        0
280
     0
281
     1
  0
CLASS
  1
XRECORD
  2
AcDbXrecord
  3
AutoCAD 2000
 90
        0
280
     0
281
     0
  0
CLASS
  1
ACDBDICTIONARYWDFLT
  2
AcDbDictionaryWithDefault
  3
ObjectDBX Classes
 90
        0
280
     0
281
     0
  0
CLASS
  1
ACDBPLACEHOLDER
  2
AcDbPlaceHolder
  3
ObjectDBX Classes
 90
        0
280
     0
281
     0
  0
CLASS
  1
LAYOUT
  2
AcDbLayout
  3
ObjectDBX Classes
 90
        0
280
     0
281
     0
  0
CLASS
  1
DICTIONARYVAR
  2
AcDbDictionaryVar
  3
ObjectDBX Classes
 90
        0
280
     0
281
     0
  0
CLASS
  1
PLOTSETTINGS
  2
AcDbPlotSettings
  3
ObjectDBX Classes
 90
        0
280
     0
281
     0
  0
CLASS
  1
MATERIAL
  2
AcDbMaterial
  3
ObjectDBX Classes
 90
     1153
280
     0
281
     0
  0
CLASS
  1
VISUALSTYLE
  2
AcDbVisualStyle
  3
ObjectDBX Classes
 90
     4095
280
     0
281
     0
  0
CLASS
  1
TABLESTYLE
  2
AcDbTableStyle
  3
ObjectDBX Classes
 90
     4095
280
     0
281
     0
  0
CLASS
  1
SCALE
  2
AcDbScale
  3
ObjectDBX Classes
 90
     1153
280
     0
281
     0
  0
CLASS
  1
MLEADERSTYLE
  2
AcDbMLeaderStyle
  3
ACDB_MLEADERSTYLE_CLASS
 90
     4095
280
     0
281
     0
  0
CLASS
  1
EXACXREFPANELOBJECT
  2
ExAcXREFPanelObject
  3
EXAC_ESW
 90
     1025
280
     1
281
     0
  0
CLASS
  1
NPOCOLLECTION
  2
AcDbImpNonPersistentObjectsCollection
  3
ObjectDBX Classes
 90
     1153
280
     1
281
     0
  0
CLASS
  1
CELLSTYLEMAP
  2
AcDbCellStyleMap
  3
ObjectDBX Classes
 90
     1152
280
     0
281
     0
  0
CLASS
  1
SORTENTSTABLE
  2
AcDbSortentsTable
  3
ObjectDBX Classes
 90
        0
280
     0
281
     0
  0
CLASS
  1
RASTERVARIABLES
  2
AcDbRasterVariables
  3
ISM
 90
        0
280
     0
281
     0
  0
CLASS
  1
IMAGEDEF
  2
AcDbRasterImageDef
  3
ISM
 90
        0
280
     0
281
     0
  0
CLASS
  1
IMAGEDEF_REACTOR
  2
AcDbRasterImageDefReactor
  3
ISM
 90
        1
280
     0
281
     0
  0
CLASS
  1
IMAGE
  2
AcDbRasterImage
  3
ISM
 90
      127
280
     0
281
     1
  0
CLASS
  1
HATCH
  2
AcDbHatch
  3
AutoCAD 2000
 90
        0
280
     0
281
     1
  0
ENDSEC
  0
SECTION
  2
TABLES
  0
TABLE
  2
VPORT
  5
8
102
{ACAD_XDICTIONARY
360
5042
102
}
330
0
100
AcDbSymbolTable
 70
     1
  0
VPORT
  5
2389
330
8
100
AcDbSymbolTableRecord
100
AcDbViewportTableRecord
  2
*ACTIVE
 70
     0
 10
0.0
 20
0.0
 11
1.0
 21
1.0
 12
1568.64764732325
 22
1027.165343730163
 13
0.0
 23
0.0
 14
2.0
 24
2.0
 15
0.5
 25
0.5
 16
0.0
 26
0.0
 36
1.0
 17
0.0
 27
0.0
 37
0.0
 40
19.42838168838728
 41
2.070773263433814
 42
50.0
 43
0.0
 44
0.0
 50
0.0
 51
0.0
 71
     0
 72
  5000
 73
     1
 74
     0
 75
     0
 76
     0
 77
     0
 78
     0
  0
ENDTAB
  0
TABLE
  2
LTYPE
  5
5
330
0
100
AcDbSymbolTable
 70
     2
  0
LTYPE
  5
12
330
5
100
AcDbSymbolTableRecord
100
AcDbLinetypeTableRecord
  2
BYBLOCK
 70
     0
  3

 72
    65
 73
     0
 40
0.0
  0
LTYPE
  5
13
330
5
100
AcDbSymbolTableRecord
100
AcDbLinetypeTableRecord
  2
BYLAYER
 70
     0
  3

 72
    65
 73
     0
 40
0.0
  0
LTYPE
  5
14
330
5
100
AcDbSymbolTableRecord
100
AcDbLinetypeTableRecord
  2
CONTINUOUS
 70
     0
  3
Solid line
 72
    65
 73
     0
 40
0.0
  0
LTYPE
  5
53
330
5
100
AcDbSymbolTableRecord
100
AcDbLinetypeTableRecord
  2
HIDDEN2
 70
     0
  3
Hidden (.5x) _ _ _ _ _ _ _ _ _ _ _ _ _ _ _ _ _
 72
    65
 73
     2
 40
0.1875
 49
0.125
 74
     0
 49
-0.0625
 74
     0
  0
ENDTAB
  0
TABLE
  2
LAYER
  5
2
102
{ACAD_XDICTIONARY
360
C90
102
}
330
0
100
AcDbSymbolTable
 70
    11
  0
LAYER
  5
E
330
2
100
AcDbSymbolTableRecord
100
AcDbLayerTableRecord
  2
0
 70
     0
 62
     7
  6
CONTINUOUS
1001
RAK
1000
{ACAD
1070
     0
1070
     7
1000
CONTINUOUS
1000
ACAD}
  0
LAYER
  5
26
330
2
100
AcDbSymbolTableRecord
100
AcDbLayerTableRecord
  2
DEFPOINTS
 70
     0
 62
     7
  6
CONTINUOUS
1001
RAK
1000
{ACAD
1070
     0
1070
     7
1000
CONTINUOUS
1000
ACAD}
  0
LAYER
  5
2B
330
2
100
AcDbSymbolTableRecord
100
AcDbLayerTableRecord
  2
A-NOTE
 70
     0
 62
     4
  6
CONTINUOUS
1001
RAK
1000
{ACAD
1070
     0
1070
     4
1000
CONTINUOUS
1000
ACAD}
  0
LAYER
  5
39
330
2
100
AcDbSymbolTableRecord
100
AcDbLayerTableRecord
  2
A-TITLE
 70
     0
 62
     1
  6
CONTINUOUS
1001
RAK
1000
{ACAD
1070
     0
1070
     1
1000
CONTINUOUS
1000
ACAD}
  0
LAYER
  5
A21
330
2
100
AcDbSymbolTableRecord
100
AcDbLayerTableRecord
  2
A-HATCH
 70
     0
 62
     3
  6
CONTINUOUS
  0
LAYER
  5
24B6
330
2
100
AcDbSymbolTableRecord
100
AcDbLayerTableRecord
  2
A1
 70
     0
 62
     1
  6
CONTINUOUS
  0
LAYER
  5
2B9C
330
2
100
AcDbSymbolTableRecord
100
AcDbLayerTableRecord
  2
A-BRICK
 70
     0
 62
     7
  6
CONTINUOUS
1001
ACAECLAYERSTANDARD
1000

1000

  0
LAYER
  5
2C64
330
2
100
AcDbSymbolTableRecord
100
AcDbLayerTableRecord
  2
A-MORTAR
 70
     0
 62
     2
  6
CONTINUOUS
1001
ACAECLAYERSTANDARD
1000

1000

  0
LAYER
  5
36CD
330
2
100
AcDbSymbolTableRecord
100
AcDbLayerTableRecord
  2
A-GRADE
 70
     0
 62
     7
  6
CONTINUOUS
1001
ACAECLAYERSTANDARD
1000

1000

  0
LAYER
  5
3EB9
330
2
100
AcDbSymbolTableRecord
100
AcDbLayerTableRecord
  2
A-MTL_GRID
 70
     0
 62
     7
  6
CONTINUOUS
1001
ACAECLAYERSTANDARD
1000

1000

  0
LAYER
  5
3EBA
330
2
100
AcDbSymbolTableRecord
100
AcDbLayerTableRecord
  2
A-BACKING
 70
     0
 62
     3
  6
CONTINUOUS
1001
ACAECLAYERSTANDARD
1000

1000

  0
ENDTAB
  0
TABLE
  2
STYLE
  5
3
330
0
100
AcDbSymbolTable
 70
     4
  0
STYLE
  5
F
330
3
100
AcDbSymbolTableRecord
100
AcDbTextStyleTableRecord
  2
STANDARD
 70
     0
 40
0.0
 41
1.0
 50
0.0
 71
     0
 42
0.2
  3
romans.shx
  4

  0
STYLE
  5
5E
330
3
100
AcDbSymbolTableRecord
100
AcDbTextStyleTableRecord
  2
ROMANS
 70
     0
 40
0.0
 41
0.8
 50
0.0
 71
     0
 42
4.5
  3
romans.shx
  4

  0
STYLE
  5
24BC
330
3
100
AcDbSymbolTableRecord
100
AcDbTextStyleTableRecord
  2
A
 70
     0
 40
0.0
 41
0.8
 50
0.0
 71
     0
 42
0.25
  3
ARIAL.TTF
  4

1001
ACAD
1000
Arial
1071
       34
  0
STYLE
  5
24BE
330
3
100
AcDbSymbolTableRecord
100
AcDbTextStyleTableRecord
  2
ROMANT
 70
     0
 40
0.0
 41
1.0
 50
0.0
 71
     0
 42
0.09375
  3
ROMANT.SHX
  4

  0
ENDTAB
  0
TABLE
  2
VIEW
  5
6
330
0
100
AcDbSymbolTable
 70
     0
  0
ENDTAB
  0
TABLE
  2
UCS
  5
7
330
0
100
AcDbSymbolTable
 70
     0
  0
ENDTAB
  0
TABLE
  2
APPID
  5
9
330
0
100
AcDbSymbolTable
 70
    14
  0
APPID
  5
10
330
9
100
AcDbSymbolTableRecord
100
AcDbRegAppTableRecord
  2
ACAD
 70
     0
  0
APPID
  5
20
330
9
100
AcDbSymbolTableRecord
100
AcDbRegAppTableRecord
  2
RAK
 70
     0
  0
APPID
  5
63
330
9
100
AcDbSymbolTableRecord
100
AcDbRegAppTableRecord
  2
_KTI_ARCHT
 70
     0
  0
APPID
  5
15A
330
9
100
AcDbSymbolTableRecord
100
AcDbRegAppTableRecord
  2
ABNSLEADERTOOLS
 70
     0
  0
APPID
  5
2090
330
9
100
AcDbSymbolTableRecord
100
AcDbRegAppTableRecord
  2
ACAD_MLEADERVER
 70
     0
  0
APPID
  5
2287
330
9
100
AcDbSymbolTableRecord
100
AcDbRegAppTableRecord
  2
ACAD_EXEMPT_FROM_CAD_STAND
 70
     0
  0
APPID
  5
26FE
330
9
100
AcDbSymbolTableRecord
100
AcDbRegAppTableRecord
  2
ACAD_PSEXT
 70
     0
  0
APPID
  5
2AAF
330
9
100
AcDbSymbolTableRecord
100
AcDbRegAppTableRecord
  2
ACAECLAYERSTANDARD
 70
     0
  0
APPID
  5
2AB0
330
9
100
AcDbSymbolTableRecord
100
AcDbRegAppTableRecord
  2
ACDBDYNAMICBLOCKTRUENAME
 70
     0
  0
APPID
  5
2AB1
330
9
100
AcDbSymbolTableRecord
100
AcDbRegAppTableRecord
  2
ACDBBLOCKREPETAG
 70
     0
  0
APPID
  5
2BB3
330
9
100
AcDbSymbolTableRecord
100
AcDbRegAppTableRecord
  2
ACAD_DSTYLE_DIMJAG
 70
     0
  0
APPID
  5
2BB4
330
9
100
AcDbSymbolTableRecord
100
AcDbRegAppTableRecord
  2
ACAD_DSTYLE_DIMBREAK
 70
     0
  0
APPID
  5
2BB5
330
9
100
AcDbSymbolTableRecord
100
AcDbRegAppTableRecord
  2
ACAD_DSTYLE_DIMTALN
 70
     0
  0
APPID
  5
3EBB
330
9
100
AcDbSymbolTableRecord
100
AcDbRegAppTableRecord
  2
ACLAYERTOOLS
 70
     0
  0
ENDTAB
  0
TABLE
  2
DIMSTYLE
  5
A
330
0
100
AcDbSymbolTable
 70
     3
  0
DIMSTYLE
105
1D
330
A
100
AcDbSymbolTableRecord
100
AcDbDimStyleTableRecord
  2
STANDARD
 70
     0
  3

  4

  5

  6

  7

 40
1.0
 41
0.18
 42
0.0625
 43
0.38
 44
0.18
 45
0.0
 46
0.0
 47
0.0
 48
0.0
140
0.18
141
0.09
142
0.0
143
25.4
144
1.0
145
0.0
146
1.0
147
0.09
 71
     0
 72
     0
 73
     1
 74
     1
 75
     0
 76
     0
 77
     0
 78
     0
170
     0
171
     2
172
     0
173
     0
174
     0
175
     0
176
     0
177
     0
178
     0
270
     2
271
     4
272
     4
273
     2
274
     2
340
F
275
     0
280
     0
281
     0
282
     0
283
     1
284
     0
285
     0
286
     0
287
     3
288
     0
  0
DIMSTYLE
105
2BB6
330
A
100
AcDbSymbolTableRecord
100
AcDbDimStyleTableRecord
  2
DIM-1
 70
     0
  3

  4

  5

  6
ARCHTICK
  7
ARCHTICK
 40
2.0
 41
0.125
 42
0.0625
 43
0.0625
 44
0.0625
 45
0.0
 46
0.0625
 47
0.0
 48
0.0
140
0.09375
141
0.0625
142
0.0
143
25.4
144
1.0
145
0.0
146
1.0
147
0.0625
 71
     0
 72
     0
 73
     0
 74
     0
 75
     0
 76
     0
 77
     1
 78
     3
170
     0
171
     2
172
     0
173
     1
174
     0
175
     0
176
     0
177
     0
178
     0
270
     4
271
     4
272
     4
273
     2
274
     2
340
5E
275
     0
280
     0
281
     0
282
     0
283
     1
284
     0
285
     0
286
     0
287
     5
288
     0
1001
ACAD_DSTYLE_DIMBREAK
1070
   391
1040
0.125
1001
ACAD_DSTYLE_DIMJAG
1070
   388
1040
1.5
1001
ACAD_DSTYLE_DIMTALN
1070
   392
1070
     0
  0
DIMSTYLE
105
4586
102
{ACAD_REACTORS
330
4861
330
494E
102
}
330
A
100
AcDbSymbolTableRecord
100
AcDbDimStyleTableRecord
  2
DIM-2
 70
     0
  3

  4

  5

  6
ARCHTICK
  7
ARCHTICK
 40
2.6
 41
0.125
 42
0.0625
 43
0.0625
 44
0.0625
 45
0.0
 46
0.0625
 47
0.0
 48
0.0
140
0.09375
141
0.0625
142
0.0
143
25.4
144
1.0
145
0.0
146
1.0
147
0.0625
 71
     0
 72
     0
 73
     0
 74
     0
 75
     0
 76
     0
 77
     1
 78
     3
170
     0
171
     2
172
     0
173
     1
174
     0
175
     0
176
     0
177
     0
178
     0
270
     4
271
     4
272
     4
273
     2
274
     2
340
5E
275
     0
280
     0
281
     0
282
     0
283
     1
284
     0
285
     0
286
     0
287
     5
288
     0
1001
ACAD_DSTYLE_DIMBREAK
1070
   391
1040
0.125
1001
ACAD_DSTYLE_DIMJAG
1070
   388
1040
1.5
1001
ACAD_DSTYLE_DIMTALN
1070
   392
1070
     0
  0
ENDTAB
  0
TABLE
  2
BLOCK_RECORD
  5
1
330
0
100
AcDbSymbolTable
 70
     3
  0
BLOCK_RECORD
  5
18
102
{ACAD_XDICTIONARY
360
2283
102
}
330
1
100
AcDbSymbolTableRecord
100
AcDbBlockTableRecord
  2
*MODEL_SPACE
  0
BLOCK_RECORD
  5
15
102
{ACAD_XDICTIONARY
360
378F
102
}
330
1
100
AcDbSymbolTableRecord
100
AcDbBlockTableRecord
  2
*PAPER_SPACE
  0
BLOCK_RECORD
  5
55
330
1
100
AcDbSymbolTableRecord
100
AcDbBlockTableRecord
  2
_ARCHTICK
  0
BLOCK_RECORD
  5
4862
330
1
100
AcDbSymbolTableRecord
100
AcDbBlockTableRecord
  2
*D1
  0
BLOCK_RECORD
  5
494F
330
1
100
AcDbSymbolTableRecord
100
AcDbBlockTableRecord
  2
*D2
  0
ENDTAB
  0
ENDSEC
  0
SECTION
  2
BLOCKS
  0
BLOCK
  5
19
330
18
100
AcDbEntity
  8
0
100
AcDbBlockBegin
  2
*MODEL_SPACE
 70
     0
 10
0.0
 20
0.0
 30
0.0
  3
*MODEL_SPACE
  1

  0
ENDBLK
  5
1A
330
18
100
AcDbEntity
  8
0
100
AcDbBlockEnd
  0
BLOCK
  5
16
330
15
100
AcDbEntity
 67
     1
  8
0
100
AcDbBlockBegin
  2
*PAPER_SPACE
 70
     0
 10
0.0
 20
0.0
 30
0.0
  3
*PAPER_SPACE
  1

  0
ENDBLK
  5
17
330
15
100
AcDbEntity
 67
     1
  8
0
100
AcDbBlockEnd
  0
BLOCK
  5
56
330
55
100
AcDbEntity
  8
0
100
AcDbBlockBegin
  2
_ARCHTICK
 70
     0
 10
0.0
 20
0.0
 30
0.0
  3
_ARCHTICK
  1

  0
LWPOLYLINE
  5
57
330
55
100
AcDbEntity
  8
0
  6
BYBLOCK
 62
     0
100
AcDbPolyline
 90
        2
 70
     0
 43
0.15
 10
-0.5
 20
-0.5
 10
0.5
 20
0.5
  0
ENDBLK
  5
5B
330
55
100
AcDbEntity
  8
0
100
AcDbBlockEnd
  0
BLOCK
  5
4863
330
4862
100
AcDbEntity
  8
0
100
AcDbBlockBegin
  2
*D1
 70
     1
 10
0.0
 20
0.0
 30
0.0
  3
*D1
  1

  0
LINE
  5
4A1D
330
4862
100
AcDbEntity
  8
A-NOTE
 62
     0
100
AcDbLine
 10
1565.584329729652
 20
1025.977853166528
 30
0.0
 11
1566.058405700051
 21
1025.977853166528
 31
0.0
  0
LINE
  5
4A1E
330
4862
100
AcDbEntity
  8
A-NOTE
 62
     0
100
AcDbLine
 10
1565.448745692035
 20
1025.477853166528
 30
0.0
 11
1566.058405700051
 21
1025.477853166528
 31
0.0
  0
LINE
  5
4A1F
330
4862
100
AcDbEntity
  8
A-NOTE
 62
     0
100
AcDbLine
 10
1565.895905700051
 20
1026.140353166528
 30
0.0
 11
1565.895905700051
 21
1025.315353166528
 31
0.0
  0
MTEXT
  5
4A20
330
4862
100
AcDbEntity
  8
A-NOTE
 62
     0
100
AcDbMText
 10
1566.401892463955
 20
1024.775196431401
 30
0.0
 40
0.24375
 41
0.0
 71
     5
 72
     1
  1
\A1;{\H1.000000x;\S1/2;}" OVERLAP
  7
ROMANS
 11
6.123233995736766E-17
 21
1.0
 31
0.0
  0
INSERT
  5
4A21
330
4862
100
AcDbEntity
  8
A-NOTE
 62
     0
100
AcDbBlockReference
  2
_ARCHTICK
 10
1565.895905700051
 20
1025.977853166528
 30
0.0
 41
0.325
 42
0.325
 43
0.325
 50
90.0
  0
INSERT
  5
4A22
330
4862
100
AcDbEntity
  8
A-NOTE
 62
     0
100
AcDbBlockReference
  2
_ARCHTICK
 10
1565.895905700051
 20
1025.477853166528
 30
0.0
 41
0.325
 42
0.325
 43
0.325
 50
270.0
  0
POINT
  5
4A23
330
4862
100
AcDbEntity
  8
DEFPOINTS
 62
     0
100
AcDbPoint
 10
1565.421829729652
 20
1025.977853166528
 30
0.0
  0
POINT
  5
4A24
330
4862
100
AcDbEntity
  8
DEFPOINTS
 62
     0
100
AcDbPoint
 10
1565.286245692035
 20
1025.477853166528
 30
0.0
  0
POINT
  5
4A25
330
4862
100
AcDbEntity
  8
DEFPOINTS
 62
     0
100
AcDbPoint
 10
1565.895905700051
 20
1025.477853166528
 30
0.0
  0
ENDBLK
  5
4864
330
4862
100
AcDbEntity
  8
0
100
AcDbBlockEnd
  0
BLOCK
  5
4950
330
494F
100
AcDbEntity
  8
0
100
AcDbBlockBegin
  2
*D2
 70
     1
 10
0.0
 20
0.0
 30
0.0
  3
*D2
  1

  0
LINE
  5
4A26
330
494F
100
AcDbEntity
  8
A-NOTE
 62
     0
100
AcDbLine
 10
1565.584329729652
 20
1025.977853166528
 30
0.0
 11
1566.058405700051
 21
1025.977853166528
 31
0.0
  0
LINE
  5
4A27
330
494F
100
AcDbEntity
  8
A-NOTE
 62
     0
100
AcDbLine
 10
1565.448745692035
 20
1028.477853166528
 30
0.0
 11
1566.058405700051
 21
1028.477853166528
 31
0.0
  0
LINE
  5
4A28
330
494F
100
AcDbEntity
  8
A-NOTE
 62
     0
100
AcDbLine
 10
1565.895905700051
 20
1025.815353166528
 30
0.0
 11
1565.895905700051
 21
1028.640353166528
 31
0.0
  0
MTEXT
  5
4A29
330
494F
100
AcDbEntity
  8
A-NOTE
 62
     0
100
AcDbMText
 10
1566.401892463955
 20
1027.745833878598
 30
0.0
 40
0.24375
 41
0.0
 71
     5
 72
     1
  1
\A1;2{\H1.000000x;\S1/2;}" MIN OVERLAP
  7
ROMANS
 11
6.123233995736766E-17
 21
1.0
 31
0.0
  0
INSERT
  5
4A2A
330
494F
100
AcDbEntity
  8
A-NOTE
 62
     0
100
AcDbBlockReference
  2
_ARCHTICK
 10
1565.895905700051
 20
1025.977853166528
 30
0.0
 41
0.325
 42
0.325
 43
0.325
 50
270.0
  0
INSERT
  5
4A2B
330
494F
100
AcDbEntity
  8
A-NOTE
 62
     0
100
AcDbBlockReference
  2
_ARCHTICK
 10
1565.895905700051
 20
1028.477853166528
 30
0.0
 41
0.325
 42
0.325
 43
0.325
 50
90.0
  0
POINT
  5
4A2C
330
494F
100
AcDbEntity
  8
DEFPOINTS
 62
     0
100
AcDbPoint
 10
1565.421829729652
 20
1025.977853166528
 30
0.0
  0
POINT
  5
4A2D
330
494F
100
AcDbEntity
  8
DEFPOINTS
 62
     0
100
AcDbPoint
 10
1565.286245692035
 20
1028.477853166528
 30
0.0
  0
POINT
  5
4A2E
330
494F
100
AcDbEntity
  8
DEFPOINTS
 62
     0
100
AcDbPoint
 10
1565.895905700051
 20
1028.477853166528
 30
0.0
  0
ENDBLK
  5
4951
330
494F
100
AcDbEntity
  8
0
100
AcDbBlockEnd
  0
ENDSEC
  0
SECTION
  2
ENTITIES
  0
HATCH
  5
2C61
330
18
100
AcDbEntity
  8
DEFPOINTS
100
AcDbHatch
 10
0.0
 20
0.0
 30
0.0
210
0.0
220
0.0
230
1.0
  2
AR-SAND
 70
     0
 71
     0
 91
        1
 92
        1
 93
        6
 72
     1
 10
1557.337172703204
 20
1005.116402334205
 11
1557.337172703203
 21
1004.585152334205
 72
     1
 10
1557.337172703203
 20
1004.585152334205
 11
1556.829031629864
 21
1004.585152334205
 72
     2
 10
1556.19066763916
 20
1004.897652334205
 40
0.7107494879545938
 50
333.9167438996858
 51
386.0832561004044
 73
     1
 72
     1
 10
1556.829031629864
 20
1005.210152334205
 11
1557.149672703205
 21
1005.210152334205
 72
     2
 10
1557.153578953204
 20
1005.163277334205
 40
0.0470374788234641
 50
94.76364168988665
 51
265.2363583087218
 73
     1
 72
     1
 10
1557.149672703204
 20
1005.116402334205
 11
1557.337172703204
 21
1005.116402334205
 97
        0
 75
     0
 76
     1
 52
0.0
 41
1.0
 77
     0
 78
     4
 53
37.5
 43
1556.829031629864
 44
1004.585152334205
 45
-0.0629933581096082
 46
1.926823769013159
 79
     6
 49
0.0
 49
-1.52
 49
0.0
 49
-1.7
 49
0.0
 49
-1.625
 53
7.499999999999999
 43
1556.829031629864
 44
1004.585152334205
 45
1.769776705267727
 46
2.82214606522974
 79
     6
 49
0.0
 49
-0.82
 49
0.0
 49
-1.37
 49
0.0
 49
-0.525
 53
327.5
 43
1555.599031629864
 44
1004.585152334205
 45
3.114141861751495
 46
0.0056590535369645
 79
     6
 49
0.0
 49
-0.5
 49
0.0
 49
-1.8
 49
0.0
 49
-2.35
 53
317.5
 43
1555.599031629864
 44
1004.585152334205
 45
3.006126604572293
 46
0.8776755649342491
 79
     6
 49
0.0
 49
-0.25
 49
0.0
 49
-1.18
 49
0.0
 49
-1.35
 98
        1
 10
0.0
 20
0.0
1001
ACAD
1010
1556.829031629864
1020
1004.585152334205
1030
0.0
  0
HATCH
  5
46F5
330
18
100
AcDbEntity
  8
A-HATCH
100
AcDbHatch
 10
0.0
 20
0.0
 30
0.0
210
0.0
220
0.0
230
1.0
  2
ANSI31
 70
     0
 71
     1
 91
        1
 92
        1
 93
        4
 72
     1
 10
1564.333567701957
 20
1027.821603166529
 11
1564.333567701957
 21
1025.571603166529
 72
     1
 10
1564.333567701957
 20
1025.571603166529
 11
1564.833567701957
 21
1025.571603166529
 72
     1
 10
1564.833567701957
 20
1025.571603166529
 11
1564.833567701957
 21
1027.821603166529
 72
     1
 10
1564.833567701957
 20
1027.821603166529
 11
1564.333567701957
 21
1027.821603166529
 97
        1
330
46F6
 75
     0
 76
     1
 52
0.0
 41
2.0
 77
     0
 78
     1
 53
45.0
 43
1562.716165882233
 44
1023.972701194413
 45
-0.1767766952966369
 46
0.1767766952966369
 79
     0
 98
        1
 10
2.77819151665949
 20
24.83535280443834
1001
ACAD
1010
1561.555376185298
1020
1000.73625036209
1030
0.0
  0
LWPOLYLINE
  5
46F6
102
{ACAD_REACTORS
330
46F5
102
}
330
18
100
AcDbEntity
  8
A-BRICK
100
AcDbPolyline
 90
        5
 70
     0
 43
0.0
 10
1564.333567701957
 20
1027.821603166529
 10
1564.333567701957
 20
1025.571603166529
 10
1564.833567701957
 20
1025.571603166529
 10
1564.833567701957
 20
1027.821603166529
 10
1564.333567701957
 20
1027.821603166529
  0
LINE
  5
46F7
330
18
100
AcDbEntity
  8
A-MTL_GRID
100
AcDbLine
 10
1564.658115025297
 20
1034.149728166529
 30
0.0
 11
1564.841708775297
 21
1034.149728166528
 31
0.0
  0
LINE
  5
46F8
330
18
100
AcDbEntity
  8
A-MTL_GRID
100
AcDbLine
 10
1564.841708775297
 20
1034.149728166528
 30
0.0
 11
1564.841708775297
 21
1033.972564396211
 31
0.0
  0
LINE
  5
46F9
330
18
100
AcDbEntity
  8
A-MTL_GRID
100
AcDbLine
 10
1564.841708775297
 20
1033.837228166528
 30
0.0
 11
1564.841708775297
 21
1033.337228166528
 31
0.0
  0
LINE
  5
46FA
330
18
100
AcDbEntity
  8
A-MTL_GRID
100
AcDbLine
 10
1564.841708775297
 20
1032.962228166528
 30
0.0
 11
1564.841708775297
 21
1031.321603166529
 31
0.0
  0
LINE
  5
46FB
330
18
100
AcDbEntity
  8
A-MTL_GRID
100
AcDbLine
 10
1564.841708775297
 20
1031.321603166529
 30
0.0
 11
1564.654208775297
 21
1031.321603166528
 31
0.0
  0
ARC
  5
46FC
330
18
100
AcDbEntity
  8
A-MTL_GRID
100
AcDbCircle
 10
1564.658115025297
 20
1031.274728166528
 30
0.0
 40
0.0470374788234074
100
AcDbArc
 50
94.76364169072623
 51
265.2363583092738
  0
LINE
  5
46FD
330
18
100
AcDbEntity
  8
A-MTL_GRID
100
AcDbLine
 10
1564.654208775297
 20
1031.227853166528
 30
0.0
 11
1564.841708775296
 21
1031.227853166528
 31
0.0
  0
LINE
  5
46FE
330
18
100
AcDbEntity
  8
A-MTL_GRID
100
AcDbLine
 10
1564.841708775296
 20
1031.227853166528
 30
0.0
 11
1564.841708775296
 21
1031.097564396211
 31
0.0
  0
LINE
  5
46FF
330
18
100
AcDbEntity
  8
A-MTL_GRID
100
AcDbLine
 10
1564.841708775296
 20
1030.962228166528
 30
0.0
 11
1564.841708775297
 21
1030.462228166528
 31
0.0
  0
LINE
  5
4700
330
18
100
AcDbEntity
  8
A-MTL_GRID
100
AcDbLine
 10
1564.841708775297
 20
1030.087228166528
 30
0.0
 11
1564.841708775297
 21
1028.446603166528
 31
0.0
  0
LINE
  5
4701
330
18
100
AcDbEntity
  8
A-MTL_GRID
100
AcDbLine
 10
1564.841708775297
 20
1028.446603166528
 30
0.0
 11
1564.654208775297
 21
1028.446603166528
 31
0.0
  0
ARC
  5
4702
330
18
100
AcDbEntity
  8
A-MTL_GRID
100
AcDbCircle
 10
1564.658115025297
 20
1028.399728166528
 30
0.0
 40
0.0470374788234074
100
AcDbArc
 50
94.76364169072623
 51
265.2363583092738
  0
LINE
  5
4703
330
18
100
AcDbEntity
  8
A-MTL_GRID
100
AcDbLine
 10
1564.654208775297
 20
1028.352853166528
 30
0.0
 11
1564.841708775297
 21
1028.352853166528
 31
0.0
  0
LINE
  5
4704
330
18
100
AcDbEntity
  8
A-MTL_GRID
100
AcDbLine
 10
1564.841708775297
 20
1028.352853166528
 30
0.0
 11
1564.841708775297
 21
1028.222564396211
 31
0.0
  0
LINE
  5
4705
330
18
100
AcDbEntity
  8
A-MTL_GRID
100
AcDbLine
 10
1564.841708775297
 20
1028.087228166528
 30
0.0
 11
1564.841708775297
 21
1027.587228166528
 31
0.0
  0
LWPOLYLINE
  5
4706
330
18
100
AcDbEntity
  8
A-MTL_GRID
100
AcDbPolyline
 90
        5
 70
     0
 43
0.0
 10
1564.841708775297
 20
1027.212228166528
 10
1564.841708775297
 20
1025.571603166529
 10
1564.654208775297
 20
1025.571603166528
 42
0.9201328815660246
 10
1564.654208775297
 20
1025.477853166528
 10
1564.798661661709
 20
1025.477853166528
  0
HATCH
  5
4707
330
18
100
AcDbEntity
  8
A-HATCH
100
AcDbHatch
 10
0.0
 20
0.0
 30
0.0
210
0.0
220
0.0
230
1.0
  2
ANSI31
 70
     0
 71
     1
 91
        1
 92
        1
 93
        4
 72
     1
 10
1564.333567701957
 20
1030.696603166528
 11
1564.333567701957
 21
1028.446603166528
 72
     1
 10
1564.333567701957
 20
1028.446603166528
 11
1564.833567701957
 21
1028.446603166528
 72
     1
 10
1564.833567701957
 20
1028.446603166528
 11
1564.833567701957
 21
1030.696603166528
 72
     1
 10
1564.833567701957
 20
1030.696603166528
 11
1564.333567701957
 21
1030.696603166528
 97
        1
330
4708
 75
     0
 76
     1
 52
0.0
 41
2.0
 77
     0
 78
     1
 53
45.0
 43
1562.716165882233
 44
1023.972701194413
 45
-0.1767766952966369
 46
0.1767766952966369
 79
     0
 98
        1
 10
2.77819151665949
 20
27.71035280443823
1001
ACAD
1010
1561.555376185298
1020
1000.73625036209
1030
0.0
  0
LWPOLYLINE
  5
4708
102
{ACAD_REACTORS
330
4707
102
}
330
18
100
AcDbEntity
  8
A-BRICK
100
AcDbPolyline
 90
        5
 70
     0
 43
0.0
 10
1564.333567701957
 20
1030.696603166528
 10
1564.333567701957
 20
1028.446603166528
 10
1564.833567701957
 20
1028.446603166528
 10
1564.833567701957
 20
1030.696603166528
 10
1564.333567701957
 20
1030.696603166528
  0
HATCH
  5
4709
330
18
100
AcDbEntity
  8
A-HATCH
100
AcDbHatch
 10
0.0
 20
0.0
 30
0.0
210
0.0
220
0.0
230
1.0
  2
ANSI31
 70
     0
 71
     1
 91
        1
 92
        1
 93
        4
 72
     1
 10
1564.333567701956
 20
1033.571603166529
 11
1564.333567701956
 21
1031.321603166529
 72
     1
 10
1564.333567701956
 20
1031.321603166529
 11
1564.833567701956
 21
1031.321603166529
 72
     1
 10
1564.833567701956
 20
1031.321603166529
 11
1564.833567701956
 21
1033.571603166529
 72
     1
 10
1564.833567701956
 20
1033.571603166529
 11
1564.333567701956
 21
1033.571603166529
 97
        1
330
470A
 75
     0
 76
     1
 52
0.0
 41
2.0
 77
     0
 78
     1
 53
45.0
 43
1562.716165882233
 44
1023.972701194413
 45
-0.1767766952966369
 46
0.1767766952966369
 79
     0
 98
        1
 10
2.778191516657671
 20
30.58535280443857
1001
ACAD
1010
1561.555376185298
1020
1000.73625036209
1030
0.0
  0
LWPOLYLINE
  5
470A
102
{ACAD_REACTORS
330
4709
102
}
330
18
100
AcDbEntity
  8
A-BRICK
100
AcDbPolyline
 90
        5
 70
     0
 43
0.0
 10
1564.333567701956
 20
1033.571603166529
 10
1564.333567701956
 20
1031.321603166529
 10
1564.833567701956
 20
1031.321603166529
 10
1564.833567701956
 20
1033.571603166529
 10
1564.333567701956
 20
1033.571603166529
  0
HATCH
  5
4712
330
18
100
AcDbEntity
  8
A-MORTAR
100
AcDbHatch
 10
0.0
 20
0.0
 30
0.0
210
0.0
220
0.0
230
1.0
  2
AR-SAND
 70
     0
 71
     0
 91
        1
 92
        1
 93
        6
 72
     1
 10
1564.841708775297
 20
1028.352853166528
 11
1564.841708775297
 21
1027.821603166528
 72
     1
 10
1564.841708775297
 20
1027.821603166528
 11
1564.333567701958
 21
1027.821603166528
 72
     2
 10
1563.695203711253
 20
1028.134103166528
 40
0.7107494879545938
 50
333.9167438996858
 51
386.0832561004044
 73
     1
 72
     1
 10
1564.333567701957
 20
1028.446603166528
 11
1564.654208775298
 21
1028.446603166528
 72
     2
 10
1564.658115025298
 20
1028.399728166528
 40
0.0470374788234641
 50
94.76364168988665
 51
265.2363583087218
 73
     1
 72
     1
 10
1564.654208775297
 20
1028.352853166528
 11
1564.841708775297
 21
1028.352853166528
 97
        0
 75
     0
 76
     1
 52
0.0
 41
0.1
 77
     0
 78
     4
 53
37.5
 43
1564.333567701957
 44
1027.821603166528
 45
-0.0062993358109608
 46
0.1926823769013159
 79
     6
 49
0.0
 49
-0.152
 49
0.0
 49
-0.17
 49
0.0
 49
-0.1625
 53
7.499999999999999
 43
1564.333567701957
 44
1027.821603166528
 45
0.1769776705267727
 46
0.282214606522974
 79
     6
 49
0.0
 49
-0.082
 49
0.0
 49
-0.137
 49
0.0
 49
-0.0525
 53
327.5
 43
1564.210567701957
 44
1027.821603166528
 45
0.3114141861751495
 46
0.0005659053536964
 79
     6
 49
0.0
 49
-0.05
 49
0.0
 49
-0.18
 49
0.0
 49
-0.235
 53
317.5
 43
1564.210567701957
 44
1027.821603166528
 45
0.3006126604572293
 46
0.0877675564934249
 79
     6
 49
0.0
 49
-0.025
 49
0.0
 49
-0.118
 49
0.0
 49
-0.135
 98
        1
 10
7.504536072093515
 20
23.23645083232316
1001
ACAD
1010
1556.829031629864
1020
1004.585152334205
1030
0.0
  0
LWPOLYLINE
  5
4713
330
18
100
AcDbEntity
  8
A-MORTAR
100
AcDbPolyline
 90
        2
 70
     0
 43
0.0
 10
1564.333567701958
 20
1027.821603166529
 42
0.2316335912014004
 10
1564.333567701957
 20
1028.446603166528
  0
HATCH
  5
4714
330
18
100
AcDbEntity
  8
A-MORTAR
100
AcDbHatch
 10
0.0
 20
0.0
 30
0.0
210
0.0
220
0.0
230
1.0
  2
AR-SAND
 70
     0
 71
     0
 91
        1
 92
        1
 93
        6
 72
     1
 10
1564.841708775297
 20
1031.227853166529
 11
1564.841708775297
 21
1030.696603166529
 72
     1
 10
1564.841708775297
 20
1030.696603166529
 11
1564.333567701958
 21
1030.696603166529
 72
     2
 10
1563.695203711253
 20
1031.009103166528
 40
0.7107494879545938
 50
333.9167438996858
 51
386.0832561004044
 73
     1
 72
     1
 10
1564.333567701957
 20
1031.321603166529
 11
1564.654208775298
 21
1031.321603166529
 72
     2
 10
1564.658115025298
 20
1031.274728166529
 40
0.0470374788234641
 50
94.76364168988665
 51
265.2363583087218
 73
     1
 72
     1
 10
1564.654208775297
 20
1031.227853166529
 11
1564.841708775297
 21
1031.227853166529
 97
        0
 75
     0
 76
     1
 52
0.0
 41
0.1
 77
     0
 78
     4
 53
37.5
 43
1564.333567701957
 44
1030.696603166529
 45
-0.0062993358109608
 46
0.1926823769013159
 79
     6
 49
0.0
 49
-0.152
 49
0.0
 49
-0.17
 49
0.0
 49
-0.1625
 53
7.499999999999999
 43
1564.333567701957
 44
1030.696603166529
 45
0.1769776705267727
 46
0.282214606522974
 79
     6
 49
0.0
 49
-0.082
 49
0.0
 49
-0.137
 49
0.0
 49
-0.0525
 53
327.5
 43
1564.210567701957
 44
1030.696603166529
 45
0.3114141861751495
 46
0.0005659053536964
 79
     6
 49
0.0
 49
-0.05
 49
0.0
 49
-0.18
 49
0.0
 49
-0.235
 53
317.5
 43
1564.210567701957
 44
1030.696603166529
 45
0.3006126604572293
 46
0.0877675564934249
 79
     6
 49
0.0
 49
-0.025
 49
0.0
 49
-0.118
 49
0.0
 49
-0.135
 98
        1
 10
7.504536072093515
 20
26.1114508323235
1001
ACAD
1010
1556.829031629864
1020
1004.585152334205
1030
0.0
  0
LWPOLYLINE
  5
4715
330
18
100
AcDbEntity
  8
A-MORTAR
100
AcDbPolyline
 90
        2
 70
     0
 43
0.0
 10
1564.333567701958
 20
1030.696603166529
 42
0.2316335912014004
 10
1564.333567701957
 20
1031.321603166529
  0
HATCH
  5
4716
330
18
100
AcDbEntity
  8
A-MORTAR
100
AcDbHatch
 10
0.0
 20
0.0
 30
0.0
210
0.0
220
0.0
230
1.0
  2
AR-SAND
 70
     0
 71
     0
 91
        1
 92
        1
 93
        6
 72
     1
 10
1564.841708775297
 20
1034.102853166529
 11
1564.841708775297
 21
1033.571603166529
 72
     1
 10
1564.841708775297
 20
1033.571603166529
 11
1564.333567701958
 21
1033.571603166529
 72
     2
 10
1563.695203711253
 20
1033.884103166528
 40
0.7107494879545938
 50
333.9167438996858
 51
386.0832561004044
 73
     1
 72
     1
 10
1564.333567701957
 20
1034.196603166529
 11
1564.654208775298
 21
1034.196603166529
 72
     2
 10
1564.658115025298
 20
1034.149728166529
 40
0.0470374788234641
 50
94.76364168988665
 51
265.2363583087218
 73
     1
 72
     1
 10
1564.654208775297
 20
1034.102853166529
 11
1564.841708775297
 21
1034.102853166529
 97
        0
 75
     0
 76
     1
 52
0.0
 41
0.1
 77
     0
 78
     4
 53
37.5
 43
1564.333567701957
 44
1033.571603166529
 45
-0.0062993358109608
 46
0.1926823769013159
 79
     6
 49
0.0
 49
-0.152
 49
0.0
 49
-0.17
 49
0.0
 49
-0.1625
 53
7.499999999999999
 43
1564.333567701957
 44
1033.571603166529
 45
0.1769776705267727
 46
0.282214606522974
 79
     6
 49
0.0
 49
-0.082
 49
0.0
 49
-0.137
 49
0.0
 49
-0.0525
 53
327.5
 43
1564.210567701957
 44
1033.571603166529
 45
0.3114141861751495
 46
0.0005659053536964
 79
     6
 49
0.0
 49
-0.05
 49
0.0
 49
-0.18
 49
0.0
 49
-0.235
 53
317.5
 43
1564.210567701957
 44
1033.571603166529
 45
0.3006126604572293
 46
0.0877675564934249
 79
     6
 49
0.0
 49
-0.025
 49
0.0
 49
-0.118
 49
0.0
 49
-0.135
 98
        1
 10
7.504536072093515
 20
28.98645083232327
1001
ACAD
1010
1556.829031629864
1020
1004.585152334205
1030
0.0
  0
LWPOLYLINE
  5
4717
330
18
100
AcDbEntity
  8
A-MORTAR
100
AcDbPolyline
 90
        2
 70
     0
 43
0.0
 10
1564.333567701958
 20
1033.571603166529
 42
0.2316335912014004
 10
1564.333567701957
 20
1034.196603166529
  0
LINE
  5
4718
330
18
100
AcDbEntity
  8
A-BACKING
100
AcDbLine
 10
1565.091708775297
 20
1034.948183818986
 30
0.0
 11
1565.091708775297
 21
1025.60285316653
 31
0.0
  0
LINE
  5
4719
330
18
100
AcDbEntity
  8
A-BRICK
100
AcDbLine
 10
1565.241708775297
 20
1034.948183818986
 30
0.0
 11
1565.241708775297
 21
1025.977853166528
 31
0.0
  0
LWPOLYLINE
  5
4756
330
18
100
AcDbEntity
  8
A-MTL_GRID
100
AcDbPolyline
 90
        4
 70
     1
 43
0.0
 10
1564.851335722849
 20
1033.337228166528
 10
1564.833567701956
 20
1033.337228166528
 10
1564.833567701956
 20
1032.962228166528
 10
1564.851335722849
 20
1032.962228166528
  0
LWPOLYLINE
  5
4757
330
18
100
AcDbEntity
  8
A-MTL_GRID
100
AcDbPolyline
 90
        4
 70
     1
 43
0.0
 10
1564.851335722849
 20
1030.462228166528
 10
1564.833567701956
 20
1030.462228166528
 10
1564.833567701956
 20
1030.087228166528
 10
1564.851335722849
 20
1030.087228166528
  0
LWPOLYLINE
  5
4758
330
18
100
AcDbEntity
  8
A-MTL_GRID
100
AcDbPolyline
 90
        4
 70
     1
 43
0.0
 10
1564.851335722849
 20
1027.587228166528
 10
1564.833567701956
 20
1027.587228166528
 10
1564.833567701956
 20
1027.212228166528
 10
1564.851335722849
 20
1027.212228166528
  0
LWPOLYLINE
  5
475A
330
18
100
AcDbEntity
  8
A-MTL_GRID
100
AcDbPolyline
 90
        5
 70
     0
 43
0.0
 10
1564.841708775297
 20
1033.837228166528
 10
1564.841112681426
 20
1033.841316578583
 42
0.2963606241459967
 10
1564.811657710128
 20
1033.874831701398
 42
-0.3172475355618613
 10
1564.750232660408
 20
1033.950352395294
 10
1564.750232660408
 20
1033.972564396211
  0
LWPOLYLINE
  5
475B
330
18
100
AcDbEntity
  8
A-MTL_GRID
100
AcDbPolyline
 90
        5
 70
     0
 43
0.0
 10
1564.841708775297
 20
1030.962228166528
 10
1564.841112681426
 20
1030.966316578582
 42
0.2963606241459967
 10
1564.811657710128
 20
1030.999831701398
 42
-0.3172475355618613
 10
1564.750232660408
 20
1031.075352395294
 10
1564.750232660408
 20
1031.097564396212
  0
LWPOLYLINE
  5
475C
330
18
100
AcDbEntity
  8
A-MTL_GRID
100
AcDbPolyline
 90
        5
 70
     0
 43
0.0
 10
1564.841708775297
 20
1028.087228166528
 10
1564.841112681426
 20
1028.091316578582
 42
0.2963606241459967
 10
1564.811657710128
 20
1028.124831701398
 42
-0.3172475355618613
 10
1564.750232660408
 20
1028.200352395294
 10
1564.750232660408
 20
1028.222564396212
  0
HATCH
  5
475D
330
18
100
AcDbEntity
  8
A-HATCH
100
AcDbHatch
 10
0.0
 20
0.0
 30
0.0
210
0.0
220
0.0
230
1.0
  2
ANSI31
 70
     0
 71
     0
 91
        1
 92
        5
 93
        4
 72
     1
 10
1564.833567701957
 20
1034.948183818985
 11
1564.333567701957
 21
1034.948183818985
 72
     1
 10
1564.333567701957
 20
1034.948183818985
 11
1564.333567701957
 21
1034.196603166529
 72
     1
 10
1564.333567701957
 20
1034.196603166529
 11
1564.833567701957
 21
1034.196603166529
 72
     1
 10
1564.833567701957
 20
1034.196603166529
 11
1564.833567701957
 21
1034.948183818984
 97
        0
 75
     0
 76
     1
 52
0.0
 41
2.0
 77
     0
 78
     1
 53
45.0
 43
1562.716165882233
 44
1032.597701194413
 45
-0.1767766952966369
 46
0.1767766952966369
 79
     0
 47
0.0
 98
        1
 10
1564.583567701957
 20
1034.572393492757
1001
ACAD
1010
1561.555376185298
1020
1000.73625036209
1030
0.0
  0
LWPOLYLINE
  5
475E
330
18
100
AcDbEntity
  8
A-BRICK
100
AcDbPolyline
 90
        4
 70
     0
 43
0.0
 10
1564.333567701957
 20
1034.948183818985
 10
1564.333567701957
 20
1034.196603166529
 10
1564.833567701957
 20
1034.196603166529
 10
1564.833567701957
 20
1034.948183818985
  0
LWPOLYLINE
  5
476E
330
18
100
AcDbEntity
  8
A-MTL_GRID
100
AcDbPolyline
 90
        5
 70
     0
 43
0.0
 10
1564.841708775297
 20
1034.948183818985
 10
1564.841708775297
 20
1034.196603166529
 10
1564.654208775297
 20
1034.196603166529
 42
0.9201328815660246
 10
1564.654208775297
 20
1034.102853166529
 10
1564.798661661709
 20
1034.102853166529
  0
LINE
  5
4846
330
18
100
AcDbEntity
  8
A-BACKING
100
AcDbLine
 10
1565.091708775297
 20
1025.60285316653
 30
0.0
 11
1565.166708775297
 21
1025.602853166529
 31
0.0
  0
LWPOLYLINE
  5
4850
330
18
100
AcDbEntity
  8
A-MORTAR
100
AcDbPolyline
 90
        4
 70
     1
 43
0.0
 10
1567.241708775297
 20
1023.977853166528
 10
1569.241708775297
 20
1023.977853166528
 10
1569.241708775297
 20
1025.977853166528
 10
1567.241708775297
 20
1025.977853166528
  0
LINE
  5
4851
330
18
100
AcDbEntity
  8
A-MORTAR
100
AcDbLine
 10
1569.241708775297
 20
1023.977853166528
 30
0.0
 11
1569.241708775297
 21
1021.438974185212
 31
0.0
  0
LINE
  5
4852
330
18
100
AcDbEntity
  8
A-MORTAR
100
AcDbLine
 10
1567.241708775297
 20
1023.977853166528
 30
0.0
 11
1567.241708775297
 21
1021.438974185212
 31
0.0
  0
LINE
  5
4853
330
18
100
AcDbEntity
  8
A-MORTAR
100
AcDbLine
 10
1568.241708775297
 20
1023.977853166528
 30
0.0
 11
1568.241708775297
 21
1021.438974185212
 31
0.0
  0
LWPOLYLINE
  5
4854
330
18
100
AcDbEntity
  8
A-NOTE
100
AcDbPolyline
 90
        8
 70
     0
 43
0.0
 10
1563.228544393142
 20
1021.438974185212
 10
1566.571803201099
 20
1021.438974185212
 10
1566.571803201099
 20
1021.352993948497
 42
0.7512150810959911
 10
1566.664046561612
 20
1021.326245144925
 10
1566.806808260437
 20
1021.551703225498
 42
-0.7512150810961321
 10
1566.89905162095
 20
1021.524954421926
 10
1566.89905162095
 20
1021.438974185212
 10
1569.816651468591
 20
1021.438974185212
  0
LINE
  5
4855
330
18
100
AcDbEntity
  8
A-MORTAR
100
AcDbLine
 10
1564.333567701957
 20
1025.571603166529
 30
0.0
 11
1564.333567701957
 21
1021.438974185212
 31
0.0
  0
LINE
  5
485A
330
18
100
AcDbEntity
  8
A-BACKING
100
AcDbLine
 10
1565.166708775297
 20
1034.948183818985
 30
0.0
 11
1565.166708775297
 21
1025.602853166528
 31
0.0
  0
LINE
  5
485B
330
18
100
AcDbEntity
  8
A-BACKING
100
AcDbLine
 10
1565.205485515569
 20
1025.902853166528
 30
0.0
 11
1565.205485515569
 21
1028.477853166528
 31
0.0
  0
LINE
  5
485C
330
18
100
AcDbEntity
  8
A-BACKING
100
AcDbLine
 10
1565.205485515569
 20
1025.902853166528
 30
0.0
 11
1567.078615392461
 21
1025.902853166529
 31
0.0
  0
LINE
  5
485D
330
18
100
AcDbEntity
  8
A-BRICK
100
AcDbLine
 10
1565.241708775297
 20
1025.977853166528
 30
0.0
 11
1571.277377659357
 21
1025.977853166528
 31
0.0
  0
LWPOLYLINE
  5
485F
330
18
100
AcDbEntity
  8
A-NOTE
100
AcDbPolyline
 90
        8
 70
     0
 43
0.0
 10
1563.254518416803
 20
1034.948183818985
 10
1566.597777224759
 20
1034.948183818985
 10
1566.597777224759
 20
1034.862203582269
 42
0.7512150810959911
 10
1566.690020585273
 20
1034.835454778697
 10
1566.832782284097
 20
1035.060912859271
 42
-0.7512150810961321
 10
1566.925025644611
 20
1035.034164055699
 10
1566.925025644611
 20
1034.948183818984
 10
1569.842625492252
 20
1034.948183818985
  0
DIMENSION
  5
4861
330
18
100
AcDbEntity
  8
A-NOTE
100
AcDbDimension
  2
*D1
 10
1565.895905700051
 20
1025.477853166528
 30
0.0
 11
1566.401892463955
 21
1024.775196431401
 31
0.0
 70
   160
  1
<> OVERLAP
  3
DIM-2
100
AcDbAlignedDimension
 13
1565.421829729652
 23
1025.977853166528
 33
0.0
 14
1565.286245692035
 24
1025.477853166528
 34
0.0
 50
90.0
100
AcDbRotatedDimension
  0
MTEXT
  5
48D1
330
18
100
AcDbEntity
  8
A-NOTE
100
AcDbMText
 10
1566.395467633411
 20
1031.897920550015
 30
0.0
 40
0.25
 41
2.547618775369983
 71
     1
 72
     5
  1
MOISTURE BARRIER
  7
ROMANS
  0
LEADER
  5
48D2
330
18
100
AcDbEntity
  8
A-NOTE
100
AcDbLeader
  3
DIM-1
 76
     3
 10
1565.166708775297
 20
1030.802893207057
 30
0.0
 10
1565.980126553554
 20
1031.360597925473
 30
0.0
 10
1566.269571928886
 20
1031.360597925473
 30
0.0
 77
   256
1001
ACAD
1000
DSTYLE
1002
{
1070
     6
1000

1070
    77
1070
     0
1070
   147
1040
0.0625
1070
   341
1005
0
1002
}
  0
MTEXT
  5
48DE
330
18
100
AcDbEntity
  8
A-NOTE
100
AcDbMText
 10
1562.526736620067
 20
1033.073822509645
 30
0.0
 40
0.25
 41
3.229579997254859
 71
     3
 72
     5
  1
\A1;1/2" THICK \PREAL BRICK
  7
ROMANS
  0
LEADER
  5
48DF
330
18
100
AcDbEntity
  8
A-NOTE
100
AcDbLeader
  3
DIM-1
 76
     3
 10
1564.330431370975
 20
1032.89435516463
 30
0.0
 10
1563.141805070125
 20
1032.89435516463
 30
0.0
 10
1562.724493646049
 20
1032.89435516463
 30
0.0
 77
   256
1001
ACAD
1000
DSTYLE
1002
{
1070
     6
1000

1070
    77
1070
     0
1070
   147
1040
0.0625
1070
   341
1005
0
1002
}
  0
MTEXT
  5
48E0
330
18
100
AcDbEntity
  8
A-NOTE
100
AcDbMText
 10
1562.526736620067
 20
1034.028118759318
 30
0.0
 40
0.25
 41
3.229579997254859
 71
     3
 72
     5
  1
\A1;BRICK-IT MORTAR
  7
ROMANS
  0
LEADER
  5
48E1
330
18
100
AcDbEntity
  8
A-NOTE
100
AcDbLeader
  3
DIM-1
 76
     3
 10
1564.405528397237
 20
1033.882771282267
 30
0.0
 10
1563.623609229606
 20
1033.882771282267
 30
0.0
 10
1562.724493646049
 20
1033.882771282268
 30
0.0
 77
   256
1001
ACAD
1000
DSTYLE
1002
{
1070
     6
1000

1070
    77
1070
     0
1070
   147
1040
0.0625
1070
   341
1005
0
1002
}
  0
MTEXT
  5
48E2
330
18
100
AcDbEntity
  8
A-NOTE
100
AcDbMText
 10
1566.395467633411
 20
1033.233424190621
 30
0.0
 40
0.25
 41
2.547618775369983
 71
     1
 72
     5
  1
WEEP SYSTEM \P(OPTIONAL)-PVC
  7
ROMANS
  0
LEADER
  5
48E3
330
18
100
AcDbEntity
  8
A-NOTE
100
AcDbLeader
  3
DIM-1
 76
     3
 10
1564.973675262696
 20
1031.873950851102
 30
0.0
 10
1565.732947272011
 20
1032.641179299172
 30
0.0
 10
1566.269571928886
 20
1032.641179299172
 30
0.0
 77
   256
211
-1.0
221
0.0
231
0.0
1001
ACAD
1000
DSTYLE
1002
{
1070
     6
1000

1070
    77
1070
     0
1070
   147
1040
0.0625
1070
   341
1005
0
1002
}
  0
MTEXT
  5
48F9
330
18
100
AcDbEntity
  8
A-NOTE
100
AcDbMText
 10
1569.300995044638
 20
1026.871894686046
 30
0.0
 40
0.25
 41
2.547618775369983
 71
     1
 72
     5
  1
WINDOW FRAME
  7
ROMANS
  0
LEADER
  5
48FA
330
18
100
AcDbEntity
  8
A-NOTE
100
AcDbLeader
  3
DIM-1
 76
     3
 10
1567.962332920501
 20
1025.53546906717
 30
0.0
 10
1568.525661998277
 20
1026.724309557944
 30
0.0
 10
1569.169246209475
 20
1026.724309557944
 30
0.0
 77
   256
1001
ACAD
1000
DSTYLE
1002
{
1070
     6
1000

1070
    77
1070
     0
1070
   147
1040
0.0625
1070
   341
1005
0
1002
}
  0
MTEXT
  5
48FB
330
18
100
AcDbEntity
  8
A-NOTE
100
AcDbMText
 10
1562.526736620067
 20
1027.244410325247
 30
0.0
 40
0.25
 41
3.229579997254859
 71
     3
 72
     5
  1
ALUMINUM CAP TO OVERLAP
  7
ROMANS
  0
DIMENSION
  5
494E
330
18
100
AcDbEntity
  8
A-NOTE
100
AcDbDimension
  2
*D2
 10
1565.895905700051
 20
1028.477853166528
 30
0.0
 11
1566.401892463955
 21
1027.745833878598
 31
0.0
 70
   160
  1
<> MIN OVERLAP
  3
DIM-2
100
AcDbAlignedDimension
 13
1565.421829729652
 23
1025.977853166528
 33
0.0
 14
1565.286245692035
 24
1028.477853166528
 34
0.0
 50
270.0
100
AcDbRotatedDimension
  0
LEADER
  5
4980
330
18
100
AcDbEntity
  8
A-NOTE
100
AcDbLeader
  3
DIM-1
 76
     3
 10
1565.205485515569
 20
1027.130235253062
 30
0.0
 10
1563.3885619833
 20
1027.130235253062
 30
0.0
 10
1562.705460851652
 20
1027.130235253062
 30
0.0
 77
   256
1001
ACAD
1000
DSTYLE
1002
{
1070
     6
1000

1070
    77
1070
     0
1070
   147
1040
0.0625
1070
   341
1005
0
1002
}
  0
HATCH
  5
4989
330
18
100
AcDbEntity
  8
A-BACKING
100
AcDbHatch
 10
0.0
 20
0.0
 30
0.0
210
0.0
220
0.0
230
1.0
  2
ANSI31
 70
     0
 71
     0
 91
        1
 92
        7
 72
     0
 73
     1
 93
        4
 10
1565.166708775297
 20
1034.948183818985
 10
1565.091708775297
 20
1034.948183818985
 10
1565.091708775297
 20
1025.602853166529
 10
1565.166708775297
 20
1025.602853166529
 97
        0
 75
     0
 76
     1
 52
90.0
 41
1.0
 77
     0
 78
     1
 53
135.0
 43
1565.091708775297
 44
1025.602853166529
 45
-0.0883883476483184
 46
-0.0883883476483184
 79
     0
 47
0.006942930741535
 98
        1
 10
1565.115957909122
 20
1026.059671325031
1001
ACAD
1010
1565.197082348599
1020
1003.365996869635
1030
0.0
  0
MTEXT
  5
49B2
330
18
100
AcDbEntity
  8
A-NOTE
100
AcDbMText
 10
1562.526736620067
 20
1031.072784324595
 30
0.0
 40
0.25
 41
3.229579997254859
 71
     3
 72
     5
  1
\A1;PATENTED METAL GRID PANEL
  7
ROMANS
  0
LEADER
  5
49B3
330
18
100
AcDbEntity
  8
A-NOTE
100
AcDbLeader
  3
DIM-1
 76
     3
 10
1564.833908438152
 20
1030.936838062695
 30
0.0
 10
1563.192013894425
 20
1030.936838062695
 30
0.0
 10
1562.724493646049
 20
1030.936838062695
 30
0.0
 77
   256
1001
ACAD
1000
DSTYLE
1002
{
1070
     6
1000

1070
    77
1070
     0
1070
   147
1040
0.0625
1070
   341
1005
0
1002
}
  0
MTEXT
  5
4A1B
330
18
100
AcDbEntity
  8
A-NOTE
100
AcDbMText
 10
1566.395467633411
 20
1033.801791688829
 30
0.0
 40
0.25
 41
2.547618775369983
 71
     1
 72
     5
  1
BUILDING
  7
ROMANS
  0
LEADER
  5
4A1C
330
18
100
AcDbEntity
  8
A-NOTE
100
AcDbLeader
  3
DIM-1
 76
     3
 10
1565.241708775297
 20
1033.678874531057
 30
0.0
 10
1565.980126553554
 20
1033.678874531057
 30
0.0
 10
1566.269571928886
 20
1033.678874531057
 30
0.0
 77
   256
1001
ACAD
1000
DSTYLE
1002
{
1070
     6
1000

1070
    77
1070
     0
1070
   147
1040
0.0625
1070
   341
1005
0
1002
}
  0
MTEXT
  5
4A2F
330
18
100
AcDbEntity
  8
A-NOTE
100
AcDbMText
 10
1559.77071128539
 20
1020.059970384292
 30
0.0
 40
0.1873125
 41
4.234512182257921
 71
     1
 72
     5
  1
\A1;{\LAVAILABLE IN TWO SIZES}
  7
ROMANS
  0
MTEXT
  5
4A30
330
18
100
AcDbEntity
  8
A-NOTE
100
AcDbMText
 10
1559.785146247518
 20
1019.72289691288
 30
0.0
 40
0.1873125
 41
4.234512182257921
 71
     1
 72
     5
  1
\A1;48"(W) x 8-1/4"(H) \P96"(W) X 8 1/4"(H)
  7
ROMANS
  0
MTEXT
  5
4A31
330
18
100
AcDbEntity
  8
A-NOTE
 62
     1
100
AcDbMText
 10
1559.799627776681
 20
1020.571288005306
 30
0.0
 40
0.21853125
 41
5.498346853854837
 71
     1
 72
     5
  1
BRICK-IT  DESIGNER METAL GRID PANEL
  7
ROMANS
  0
MTEXT
  5
4A32
330
18
100
AcDbEntity
  8
A-NOTE
100
AcDbMText
 10
1560.983062518179
 20
1020.571316897956
 30
0.0
 40
0.124875
 41
0.3242662609890827
 71
     1
 72
     5
  1
TM
  7
ROMANS
  0
LINE
  5
4B4A
330
18
100
AcDbEntity
  8
A-BACKING
100
AcDbLine
 10
1564.997456065746
 20
1034.948183818985
 30
0.0
 11
1564.997456065746
 21
1025.602853166529
 31
0.0
  0
LINE
  5
4B4B
330
18
100
AcDbEntity
  8
A-BACKING
100
AcDbLine
 10
1564.927894444215
 20
1034.948183818985
 30
0.0
 11
1564.927894444215
 21
1025.602853166529
 31
0.0
  0
LINE
  5
4B4D
330
18
100
AcDbEntity
  8
A-BACKING
100
AcDbLine
 10
1564.997456065746
 20
1025.602853166529
 30
0.0
 11
1564.927894444215
 21
1025.602853166529
 31
0.0
  0
VIEWPORT
  5
172
102
{ACAD_XDICTIONARY
360
4FF6
102
}
330
15
100
AcDbEntity
 67
     1
  8
0
100
AcDbViewport
 10
4.250000059375441
 20
5.500000076838797
 30
0.0
 40
22.95809512057801
 41
11.08672568164622
 68
     1
 69
     1
1001
ACAD
1000
MVIEW
1002
{
1070
    16
1010
0.0
1020
0.0
1030
0.0
1010
0.0
1020
0.0
1030
1.0
1040
0.0
1040
11.08672568164622
1040
4.250000059375441
1040
5.500000076838797
1040
50.0
1040
0.0
1040
0.0
1070
     0
1070
  1000
1070
     1
1070
     1
1070
     0
1070
     0
1070
     0
1070
     0
1040
0.0
1040
0.0
1040
0.0
1040
0.5
1040
0.5
1040
0.5
1040
0.5
1070
     0
1002
{
1002
}
1002
}
  0
IMAGE
  5
3700
330
15
100
AcDbEntity
 67
     1
  8
A-TITLE
 92
        8
310
0800000000000000
100
AcDbRasterImage
 90
        0
 10
6.612087911465813
 20
0.4412436629029195
 30
0.0
 11
0.001258057909869868
 21
0.0
 31
0.0
 12
7.703382962320721E-20
 22
0.001258057909869869
 32
0.0
 13
1251.0
 23
634.0
340
36FE
 70
     7
280
     0
281
    50
282
    50
283
     0
360
36FF
 71
     1
 91
        2
 14
-0.5
 24
-0.5
 14
1250.5
 24
633.5
  0
TEXT
  5
3762
330
15
100
AcDbEntity
 67
     1
  8
A-NOTE
100
AcDbText
 10
5.92314221701778
 20
-21.15311670196458
 30
0.0
 40
0.25
  1

 50
270.0
  7
ROMANT
100
AcDbText
  0
LWPOLYLINE
  5
3763
330
15
100
AcDbEntity
 67
     1
  8
DEFPOINTS
100
AcDbPolyline
 90
        4
 70
     1
 43
0.0
 10
-0.0000000000000002
 20
0.0
 10
8.5
 20
-0.0000000000000053
 10
8.500000000000002
 20
10.99999999999999
 10
0.0000000000000036
 20
11.0
  0
LWPOLYLINE
  5
3764
330
15
100
AcDbEntity
 67
     1
  8
A1
100
AcDbPolyline
 90
        4
 70
     1
 43
0.0
 10
0.2499999999999998
 20
0.375
 10
8.25
 20
0.3749999999999947
 10
8.250000000000002
 20
10.62499999999999
 10
0.2500000000000035
 20
10.625
  0
LINE
  5
3774
330
15
100
AcDbEntity
 67
     1
  8
A1
100
AcDbLine
 10
8.25
 20
1.313363193949991
 30
0.0
 11
0.25
 21
1.313363193949996
 31
0.0
  0
LINE
  5
377A
330
15
100
AcDbEntity
 67
     1
  8
A1
100
AcDbLine
 10
6.499153996313808
 20
0.3749999999999947
 30
0.0
 11
6.499153996313808
 21
1.313363193949992
 31
0.0
  0
VIEWPORT
  5
3792
102
{ACAD_XDICTIONARY
360
3793
102
}
330
15
100
AcDbEntity
 67
     1
  8
DEFPOINTS
100
AcDbViewport
 10
4.25
 20
5.969181596974989
 30
0.0
 40
8.0
 41
9.311636806049997
 68
     2
 69
     2
1001
ACAD
1000
MVIEW
1002
{
1070
    16
1010
0.0
1020
0.0
1030
0.0
1010
0.0
1020
0.0
1030
1.0
1040
0.0
1040
18.62327369421899
1040
1565.984364719429
1040
1027.362799310263
1040
50.0
1040
0.0
1040
0.0
1070
     0
1070
  5000
1070
     1
1070
     0
1070
     0
1070
     0
1070
     0
1070
     0
1040
0.0
1040
0.0
1040
0.0
1040
2.0
1040
2.0
1040
0.5
1040
0.5
1070
     0
1002
{
1002
}
1002
}
  0
LINE
  5
3B7A
330
15
100
AcDbEntity
 67
     1
  8
A1
100
AcDbLine
 10
0.2499999999999998
 20
0.708
 30
0.0
 11
6.499153996313808
 21
0.708
 31
0.0
  0
LINE
  5
3B7B
330
15
100
AcDbEntity
 67
     1
  8
A1
100
AcDbLine
 10
0.2499999999999998
 20
0.9159999999999999
 30
0.0
 11
6.499153996313808
 21
0.9159999999999999
 31
0.0
  0
LINE
  5
3B7C
330
15
100
AcDbEntity
 67
     1
  8
A1
100
AcDbLine
 10
3.374576998156903
 20
0.708
 30
0.0
 11
3.374576998156904
 21
0.3749999999999979
 31
0.0
  0
MTEXT
  5
3B7D
330
15
100
AcDbEntity
 67
     1
  8
A-NOTE
100
AcDbMText
 10
0.3006998111790509
 20
1.221361811478049
 30
0.0
 40
0.1875
 41
5.48741680826955
 71
     1
 72
     5
  1
BRICK-IT HEADER DETAIL
  7
A
  0
MTEXT
  5
3B82
330
15
100
AcDbEntity
 67
     1
  8
A-NOTE
100
AcDbMText
 10
0.3082078248633806
 20
0.6534990150487534
 30
0.0
 40
0.1875
 41
2.937155095538714
 71
     1
 72
     5
  1
MOD4883-A4
  7
A
  0
MTEXT
  5
3B83
330
15
100
AcDbEntity
 67
     1
  8
A-NOTE
100
AcDbMText
 10
4.672633056487534
 20
0.6201147220973109
 30
0.0
 40
0.125
 41
1.408208086233465
 71
     1
 72
     5
  1
09062-MOD4883-A4-PG001
  7
A
  0
TEXT
  5
3B84
330
15
100
AcDbEntity
 67
     1
  8
A-NOTE
100
AcDbText
 10
0.2929968548725714
 20
0.7797463152543971
 30
0.0
 40
0.078125
  1
Scale: 1" = 2"
  7
A
 11
0.2929968548725714
 21
0.8188088152543971
 31
0.0
100
AcDbText
 73
     2
  0
TEXT
  5
3B85
330
15
100
AcDbEntity
 67
     1
  8
A-NOTE
100
AcDbText
 10
5.551176212856541
 20
0.7797463152543971
 30
0.0
 40
0.078125
  1
Date: 5-11-2010
  7
A
 11
5.551176212856541
 21
0.8188088152543971
 31
0.0
100
AcDbText
 73
     2
  0
ENDSEC
  0
SECTION
  2
OBJECTS
  0
DICTIONARY
  5
C
330
0
100
AcDbDictionary
  3
ABNSLEADERTOOLS
350
A04
  3
ACAD_COLOR
350
2069
  3
ACAD_GROUP
350
D
  3
ACAD_IMAGE_DICT
350
36F7
  3
ACAD_IMAGE_VARS
350
36F8
  3
ACAD_LAYOUT
350
B15
  3
ACAD_MATERIAL
350
203F
  3
ACAD_MLEADERSTYLE
350
208E
  3
ACAD_MLINESTYLE
350
1B
  3
ACAD_PLOTSETTINGS
350
B16
  3
ACAD_SCALELIST
350
206C
  3
ACAD_VISUALSTYLE
350
2058
  3
ACADDIM
350
3C8B
  3
ACDB_RECOMPOSE_DATA
350
209C
  3
ACDBHEADERROUNDTRIPXREC
350
501C
  3
ACDBVARIABLEDICTIONARY
350
B76
  3
AEC_PROPERTY_SET_DEFS
350
CAB
  3
AUXHDRRNDTRIPDATA
350
4FEE
  3
BNS_SELSET
350
102
  3
BNS_VARIABLES
350
21A
  3
DWGPROPS
350
5041
  0
DICTIONARY
  5
5042
330
8
100
AcDbDictionary
280
     1
  3
ACAD_XREC_ROUNDTRIP
360
5043
  0
DICTIONARY
  5
C90
330
2
100
AcDbDictionary
280
     1
  3
ACAD_LAYERFILTERS
360
4273
  3
ACAD_LAYERSTATES
360
156B
  3
ACLYDICTIONARY
360
4272
  0
DICTIONARY
  5
2283
330
18
100
AcDbDictionary
280
     1
  3
ACAD_SORTENTS
360
2284
  0
DICTIONARY
  5
378F
330
15
100
AcDbDictionary
280
     1
  3
ACAD_SORTENTS
360
3790
  0
DICTIONARY
  5
4FF6
330
172
100
AcDbDictionary
280
     1
  3
ACAD_XREC_ROUNDTRIP
360
4FF7
  0
IMAGEDEF_REACTOR
  5
36FF
330
3700
100
AcDbRasterImageDefReactor
 90
        2
330
3700
  0
DICTIONARY
  5
3793
330
3792
100
AcDbDictionary
280
     1
  3
ACAD_XREC_ROUNDTRIP
360
5019
  3
ASDK_XREC_ANNOTATION_SCALE_INFO
360
3794
  0
XRECORD
  5
A04
102
{ACAD_REACTORS
330
C
102
}
330
C
100
AcDbXrecord
1001
AbnsLeaderTools
1071
 97072200
1070
     0
1070
     0
1070
     0
1070
     0
1070
     1
1070
     3
1070
     1
1070
     3
1070
     0
1070
     0
1070
     0
1070
     0
1071
        0
  0
DICTIONARY
  5
2069
102
{ACAD_REACTORS
330
C
102
}
330
C
100
AcDbDictionary
  0
DICTIONARY
  5
D
102
{ACAD_REACTORS
330
C
102
}
330
C
100
AcDbDictionary
  0
DICTIONARY
  5
36F7
102
{ACAD_REACTORS
330
C
102
}
330
C
100
AcDbDictionary
  3
BRICK-IT_LOGO
350
36FE
  0
RASTERVARIABLES
  5
36F8
102
{ACAD_REACTORS
330
C
102
}
330
C
100
AcDbRasterVariables
 90
        0
 70
     0
 71
     1
 72
     5
  0
DICTIONARY
  5
B15
102
{ACAD_REACTORS
330
C
102
}
330
C
100
AcDbDictionary
  0
DICTIONARY
  5
203F
102
{ACAD_REACTORS
330
C
102
}
330
C
100
AcDbDictionary
  3
BYBLOCK
350
2048
  3
BYLAYER
350
2040
  3
GLOBAL
350
2050
  0
DICTIONARY
  5
208E
102
{ACAD_REACTORS
330
C
102
}
330
C
100
AcDbDictionary
  3
STANDARD
350
208F
  0
DICTIONARY
  5
1B
102
{ACAD_REACTORS
330
C
102
}
330
C
100
AcDbDictionary
  3
STANDARD
350
1C
  0
DICTIONARY
  5
B16
102
{ACAD_REACTORS
330
C
102
}
330
C
100
AcDbDictionary
  3
8.5X11
350
2B7E
  3
PDF2436
350
270F
  3
PLOT2436
350
26FD
  3
PRINT11X17
350
2720
  0
DICTIONARY
  5
206C
102
{ACAD_REACTORS
330
C
102
}
330
C
100
AcDbDictionary
  3
*A1
350
3E5F
  3
*A10
350
3E77
  3
*A11
350
3E82
  3
*A12
350
3E68
  3
*A13
350
3E6D
  3
*A14
350
3E7A
  3
*A15
350
3E85
  3
*A16
350
3E6F
  3
*A17
350
3E71
  3
*A18
350
3E7D
  3
*A19
350
3E63
  3
*A2
350
3E70
  3
*A20
350
3E74
  3
*A21
350
3E80
  3
*A22
350
3E66
  3
*A23
350
3E76
  3
*A24
350
3E78
  3
*A25
350
3E83
  3
*A26
350
3E6B
  3
*A27
350
3E7B
  3
*A28
350
3E62
  3
*A29
350
3E6E
  3
*A3
350
3E7C
  3
*A30
350
3E7E
  3
*A31
350
3E64
  3
*A32
350
3E72
  3
*A33
350
3E81
  3
*A34
350
3E6A
  3
*A35
350
3E75
  3
*A36
350
3E84
  3
*A37
350
3E6C
  3
*A38
350
3E79
  3
*A39
350
3E86
  3
*A4
350
3E60
  3
*A40
350
3E61
  3
*A5
350
3E65
  3
*A6
350
3E73
  3
*A7
350
3E7F
  3
*A8
350
3E67
  3
*A9
350
3E69
  3
A0
350
206D
  3
A1
350
206E
  3
A2
350
206F
  3
A3
350
2070
  3
A4
350
2071
  3
A5
350
2072
  3
A6
350
2073
  3
A7
350
2074
  3
A8
350
2075
  3
A9
350
2076
  3
B0
350
2077
  3
B1
350
2078
  3
B2
350
2079
  3
B3
350
207A
  3
B4
350
207B
  3
B5
350
207C
  3
B6
350
207D
  3
B7
350
207E
  3
B8
350
207F
  3
B9
350
2080
  3
C0
350
2081
  3
C1
350
2082
  3
C2
350
2083
  3
C3
350
2084
  3
C4
350
2085
  3
C5
350
2086
  3
C6
350
2087
  3
C7
350
2088
  3
C8
350
2089
  3
C9
350
208A
  3
D0
350
208B
  3
D1
350
208C
  3
D2
350
208D
  0
DICTIONARY
  5
2058
102
{ACAD_REACTORS
330
C
102
}
330
C
100
AcDbDictionary
  3
2DWIREFRAME
350
205E
  3
3D_HIDDEN
350
2060
  3
3DWIREFRAME
350
205F
  3
BASIC
350
205D
  3
BRIGHTEN
350
2064
  3
COLORCHANGE
350
2068
  3
CONCEPTUAL
350
2061
  3
DIM
350
2063
  3
FACEPATTERN
350
2067
  3
FLAT
350
2059
  3
FLATWITHEDGES
350
205A
  3
GOURAUD
350
205B
  3
GOURAUDWITHEDGES
350
205C
  3
LINEPATTERN
350
2066
  3
REALISTIC
350
2062
  3
THICKEN
350
2065
  0
XRECORD
  5
3C8B
102
{ACAD_REACTORS
330
C
102
}
330
C
100
AcDbXrecord
 90
   990106
  3

 60
     4
 61
     0
 62
     1
 63
     3
 64
     0
 65
     0
 66
     0
 67
     3
 68
     1
 69
     0
 70
     0
 71
     0
 72
     0
 40
0.0
170
     0
  0
XRECORD
  5
209C
102
{ACAD_REACTORS
330
C
102
}
330
C
100
AcDbXrecord
 90
        1
330
206B
  0
DICTIONARY
  5
501C
102
{ACAD_REACTORS
330
C
102
}
330
C
100
AcDbDictionary
  3
CEPSNTYPE
350
5025
  3
COLORDICT
350
503F
  3
DIMSTYLEDATA
350
503B
  3
FINGERPRINTGUID
350
5026
  3
HYPERLINKBASE
350
501F
  3
INSUNITS
350
5024
  3
LAYOUTDICT
350
5021
  3
LWETCUNION
350
5023
  3
MATERIALDICT
350
5040
  3
PLOTSETDICT
350
5022
  3
PSVPSCALE
350
5028
  3
PUCSBASE
350
502B
  3
PUCSORGBACK
350
5031
  3
PUCSORGBOTTOM
350
502D
  3
PUCSORGFRONT
350
5030
  3
PUCSORGLEFT
350
502E
  3
PUCSORGRIGHT
350
502F
  3
PUCSORGTOP
350
502C
  3
PUCSORTHOREF
350
5029
  3
PUCSORTHOVIEW
350
502A
  3
STYLESHEET
350
5020
  3
TSTACKALIGN
350
501D
  3
TSTACKSIZE
350
501E
  3
UCSBASE
350
5034
  3
UCSORGBACK
350
503A
  3
UCSORGBOTTOM
350
5036
  3
UCSORGFRONT
350
5039
  3
UCSORGLEFT
350
5037
  3
UCSORGRIGHT
350
5038
  3
UCSORGTOP
350
5035
  3
UCSORTHOREF
350
5032
  3
UCSORTHOVIEW
350
5033
  3
VERSIONGUID
350
5027
  0
DICTIONARY
  5
B76
102
{ACAD_REACTORS
330
C
102
}
330
C
100
AcDbDictionary
  3
CANNOSCALE
350
503D
  3
CMLEADERSTYLE
350
209E
  3
DIMASSOC
350
B77
  3
HIDETEXT
350
503E
  3
INDEXCTL
350
226D
  3
LAYEREVAL
350
20A2
  3
LIGHTINGUNITS
350
20A1
  3
MSLTSCALE
350
209F
  3
SORTENTS
350
226C
  0
DICTIONARY
  5
CAB
102
{ACAD_REACTORS
330
C
102
}
330
C
100
AcDbDictionary
  0
XRECORD
  5
4FEE
102
{ACAD_REACTORS
330
C
102
}
330
C
100
AcDbXrecord
310
6400000000000000AE0000001B001A0002002F000000000015000900150009000501280A0501280A000000003B000000000000000000F27E00000000AE0000000000000000000000000000000000000000000000000000000000000000000000B024396E
  0
DICTIONARY
  5
102
102
{ACAD_REACTORS
330
C
102
}
330
C
100
AcDbDictionary
  3
BNS_SS01
350
986
  3
BNS_SS02
350
987
  0
DICTIONARY
  5
21A
102
{ACAD_REACTORS
330
C
102
}
330
C
100
AcDbDictionary
  3
BNS_EDITTIME_TOTAL
350
B10
  0
XRECORD
  5
5041
102
{ACAD_REACTORS
330
C
102
}
330
C
100
AcDbXrecord
  1
DWGPROPS COOKIE
  2

  3

  4

  6

  7

  8
ed
  9

300
=
301
=
302
=
303
=
304
=
305
=
306
=
307
=
308
=
309
=
 40
0.0
 41
2455134.451364826
 42
2455328.460228403
  1

 90
        0
  0
XRECORD
  5
5043
102
{ACAD_REACTORS
330
5042
102
}
330
5042
100
AcDbXrecord
102
VTR_0.000_0.000_1.000_1.000_VISUALSTYLE
340
205E
102
VTR_0.000_0.000_1.000_1.000_GRIDDISPLAY
 70
     3
102
VTR_0.000_0.000_1.000_1.000_GRIDMAJOR
 70
     5
102
VTR_0.000_0.000_1.000_1.000_DEFAULTLIGHTING
280
     1
102
VTR_0.000_0.000_1.000_1.000_DEFAULTLIGHTINGTYPE
 70
     1
102
VTR_0.000_0.000_1.000_1.000_BRIGHTNESS
141
0.0
102
VTR_0.000_0.000_1.000_1.000_CONTRAST
142
0.0
  0
DICTIONARY
  5
4273
102
{ACAD_REACTORS
330
C90
102
}
330
C90
100
AcDbDictionary
  0
DICTIONARY
  5
156B
102
{ACAD_REACTORS
330
C90
102
}
330
C90
100
AcDbDictionary
  0
DICTIONARY
  5
4272
102
{ACAD_REACTORS
330
C90
102
}
330
C90
100
AcDbDictionary
1001
ACAD
1000
<All
  0
SORTENTSTABLE
  5
2284
102
{ACAD_REACTORS
330
2283
102
}
330
2283
100
AcDbSortentsTable
330
18
331
2C61
  5
356E
331
46F5
  5
46F5
331
46F6
  5
46F6
331
46F7
  5
46F7
331
46F8
  5
46F8
331
46F9
  5
46F9
331
46FA
  5
46FA
331
46FB
  5
46FB
331
46FC
  5
46FC
331
46FD
  5
46FD
331
46FE
  5
46FE
331
46FF
  5
46FF
331
4700
  5
4700
331
4701
  5
4701
331
4702
  5
4702
331
4703
  5
4703
331
4704
  5
4704
331
4705
  5
4705
331
4706
  5
4706
331
4707
  5
4707
331
4708
  5
4708
331
4709
  5
4709
331
470A
  5
470A
331
4712
  5
4719
331
4713
  5
4755
331
4714
  5
4756
331
4715
  5
4757
331
4716
  5
4758
331
4717
  5
475A
331
4718
  5
475C
331
4719
  5
475E
331
4756
  5
475F
331
4757
  5
4760
331
4758
  5
4761
331
475A
  5
4762
331
475B
  5
4763
331
475C
  5
4764
331
475D
  5
4765
331
475E
  5
4775
331
476E
  5
480D
331
4846
  5
484C
331
4850
  5
485B
331
4851
  5
485C
331
4852
  5
485D
331
4853
  5
485F
331
4854
  5
4861
331
4855
  5
48D1
331
485A
  5
48D2
331
485B
  5
48DE
331
485C
  5
485A
331
485D
  5
4855
331
485F
  5
48DF
331
4861
  5
48E0
331
48D1
  5
48E1
331
48D2
  5
48E2
331
48DE
  5
48E3
331
48DF
  5
48F9
331
48E0
  5
48FA
331
48E1
  5
48FB
331
48E2
  5
48FC
331
48E3
  5
490F
331
48F9
  5
4942
331
48FA
  5
4945
331
48FB
  5
4947
331
494E
  5
4980
331
4980
  5
4983
331
4989
  5
475B
331
49B2
  5
49B2
331
49B3
  5
49B3
  0
SORTENTSTABLE
  5
3790
102
{ACAD_REACTORS
330
378F
102
}
330
378F
100
AcDbSortentsTable
330
15
331
172
  5
3700
331
3700
  5
3762
331
3762
  5
3763
331
3763
  5
3764
331
3764
  5
376A
331
3774
  5
3775
331
377A
  5
377F
331
3792
  5
172
331
3B7A
  5
3B7A
331
3B7B
  5
3B7B
331
3B7C
  5
3B7C
331
3B7D
  5
3B7D
331
3B82
  5
3B82
331
3B83
  5
3B83
331
3B84
  5
3B84
331
3B85
  5
3B85
  0
XRECORD
  5
4FF7
102
{ACAD_REACTORS
330
4FF6
102
}
330
4FF6
100
AcDbXrecord
102
VISUALSTYLE
340
205E
102
GRIDDISPLAY
 70
     0
102
GRIDMAJOR
 70
     5
102
DEFAULTLIGHTING
280
     1
102
DEFAULTLIGHTINGTYPE
 70
     1
102
BRIGHTNESS
141
0.0
102
CONTRAST
142
0.0
  0
XRECORD
  5
5019
102
{ACAD_REACTORS
330
3793
102
}
330
3793
100
AcDbXrecord
102
VISUALSTYLE
340
205E
102
GRIDDISPLAY
 70
     3
102
GRIDMAJOR
 70
     5
102
DEFAULTLIGHTING
280
     1
102
DEFAULTLIGHTINGTYPE
 70
     1
102
BRIGHTNESS
141
0.0
102
CONTRAST
142
0.0
  0
XRECORD
  5
3794
102
{ACAD_REACTORS
330
3793
102
}
330
3793
100
AcDbXrecord
 90
        1
340
206D
  0
IMAGEDEF
  5
36FE
102
{ACAD_REACTORS
330
36F7
330
36FF
102
}
330
36F7
100
AcDbRasterImageDef
 90
        0
  1
S:\proj\00_Brick It\Brick-It logo.jpg
 10
1251.0
 20
634.0
 11
0.3527777777777777
 21
0.3527777777777777
280
     1
281
     5
  0
MATERIAL
  5
2048
102
{ACAD_REACTORS
330
203F
102
}
102
{ACAD_XDICTIONARY
360
5044
102
}
330
203F
100
AcDbMaterial
  1
BYBLOCK
 72
     0
 73
     2
 43
0.0208333333333333
 43
0.0
 43
0.0
 43
0.0
 43
0.0
 43
0.0208333333333333
 43
0.0
 43
0.0
 43
0.0
 43
0.0
 43
1.0
 43
0.0
 43
0.0
 43
0.0
 43
0.0
 43
1.0
 77
     0
 78
     2
 47
0.0208333333333333
 47
0.0
 47
0.0
 47
0.0
 47
0.0
 47
0.0208333333333333
 47
0.0
 47
0.0
 47
0.0
 47
0.0
 47
1.0
 47
0.0
 47
0.0
 47
0.0
 47
0.0
 47
1.0
171
     0
172
     2
 49
0.0208333333333333
 49
0.0
 49
0.0
 49
0.0
 49
0.0
 49
0.0208333333333333
 49
0.0
 49
0.0
 49
0.0
 49
0.0
 49
1.0
 49
0.0
 49
0.0
 49
0.0
 49
0.0
 49
1.0
175
     0
176
     2
142
0.0208333333333333
142
0.0
142
0.0
142
0.0
142
0.0
142
0.0208333333333333
142
0.0
142
0.0
142
0.0
142
0.0
142
1.0
142
0.0
142
0.0
142
0.0
142
0.0
142
1.0
179
     0
270
     2
144
0.0208333333333333
144
0.0
144
0.0
144
0.0
144
0.0
144
0.0208333333333333
144
0.0
144
0.0
144
0.0
144
0.0
144
1.0
144
0.0
144
0.0
144
0.0
144
0.0
144
1.0
274
     2
147
0.0208333333333333
147
0.0
147
0.0
147
0.0
147
0.0
147
0.0208333333333333
147
0.0
147
0.0
147
0.0
147
0.0
147
1.0
147
0.0
147
0.0
147
0.0
147
0.0
147
1.0
  0
MATERIAL
  5
2040
102
{ACAD_REACTORS
330
203F
102
}
102
{ACAD_XDICTIONARY
360
5046
102
}
330
203F
100
AcDbMaterial
  1
BYLAYER
 72
     0
 73
     2
 43
0.0208333333333333
 43
0.0
 43
0.0
 43
0.0
 43
0.0
 43
0.0208333333333333
 43
0.0
 43
0.0
 43
0.0
 43
0.0
 43
1.0
 43
0.0
 43
0.0
 43
0.0
 43
0.0
 43
1.0
 77
     0
 78
     2
 47
0.0208333333333333
 47
0.0
 47
0.0
 47
0.0
 47
0.0
 47
0.0208333333333333
 47
0.0
 47
0.0
 47
0.0
 47
0.0
 47
1.0
 47
0.0
 47
0.0
 47
0.0
 47
0.0
 47
1.0
171
     0
172
     2
 49
0.0208333333333333
 49
0.0
 49
0.0
 49
0.0
 49
0.0
 49
0.0208333333333333
 49
0.0
 49
0.0
 49
0.0
 49
0.0
 49
1.0
 49
0.0
 49
0.0
 49
0.0
 49
0.0
 49
1.0
175
     0
176
     2
142
0.0208333333333333
142
0.0
142
0.0
142
0.0
142
0.0
142
0.0208333333333333
142
0.0
142
0.0
142
0.0
142
0.0
142
1.0
142
0.0
142
0.0
142
0.0
142
0.0
142
1.0
179
     0
270
     2
144
0.0208333333333333
144
0.0
144
0.0
144
0.0
144
0.0
144
0.0208333333333333
144
0.0
144
0.0
144
0.0
144
0.0
144
1.0
144
0.0
144
0.0
144
0.0
144
0.0
144
1.0
274
     2
147
0.0208333333333333
147
0.0
147
0.0
147
0.0
147
0.0
147
0.0208333333333333
147
0.0
147
0.0
147
0.0
147
0.0
147
1.0
147
0.0
147
0.0
147
0.0
147
0.0
147
1.0
  0
MATERIAL
  5
2050
102
{ACAD_REACTORS
330
203F
102
}
102
{ACAD_XDICTIONARY
360
5048
102
}
330
203F
100
AcDbMaterial
  1
GLOBAL
 72
     0
 73
     2
 43
0.0208333333333333
 43
0.0
 43
0.0
 43
0.0
 43
0.0
 43
0.0208333333333333
 43
0.0
 43
0.0
 43
0.0
 43
0.0
 43
1.0
 43
0.0
 43
0.0
 43
0.0
 43
0.0
 43
1.0
 77
     0
 78
     2
 47
0.0208333333333333
 47
0.0
 47
0.0
 47
0.0
 47
0.0
 47
0.0208333333333333
 47
0.0
 47
0.0
 47
0.0
 47
0.0
 47
1.0
 47
0.0
 47
0.0
 47
0.0
 47
0.0
 47
1.0
171
     0
172
     2
 49
0.0208333333333333
 49
0.0
 49
0.0
 49
0.0
 49
0.0
 49
0.0208333333333333
 49
0.0
 49
0.0
 49
0.0
 49
0.0
 49
1.0
 49
0.0
 49
0.0
 49
0.0
 49
0.0
 49
1.0
175
     0
176
     2
142
0.0208333333333333
142
0.0
142
0.0
142
0.0
142
0.0
142
0.0208333333333333
142
0.0
142
0.0
142
0.0
142
0.0
142
1.0
142
0.0
142
0.0
142
0.0
142
0.0
142
1.0
179
     0
270
     2
144
0.0208333333333333
144
0.0
144
0.0
144
0.0
144
0.0
144
0.0208333333333333
144
0.0
144
0.0
144
0.0
144
0.0
144
1.0
144
0.0
144
0.0
144
0.0
144
0.0
144
1.0
274
     2
147
0.0208333333333333
147
0.0
147
0.0
147
0.0
147
0.0
147
0.0208333333333333
147
0.0
147
0.0
147
0.0
147
0.0
147
1.0
147
0.0
147
0.0
147
0.0
147
0.0
147
1.0
  0
ACAD_PROXY_OBJECT
  5
208F
102
{ACAD_REACTORS
330
208E
102
}
330
208E
100
AcDbProxyObject
 90
      499
 91
      511
 93
      610
310
40901902A4063FBFFFFFE056BD1B81E855B9FC0AD7A3703D0AD73F4214DD185B99185C9900AD7A3703D0AC73F90141901A02B5E8DC0F42B1CFC02B5E8DC0F42B1CFE5764000000000000300FC0
340
12
340
0
340
F
340
0
 94
        0
1001
ACAD_MLEADERVER
1070
     2
  0
MLINESTYLE
  5
1C
102
{ACAD_REACTORS
330
1B
102
}
330
1B
100
AcDbMlineStyle
  2
STANDARD
 70
     0
  3

 62
   256
 51
90.0
 52
90.0
 71
     2
 49
0.5
 62
   256
  6
BYLAYER
 49
-0.5
 62
   256
  6
BYLAYER
  0
PLOTSETTINGS
  5
2B7E
102
{ACAD_REACTORS
330
B16
102
}
330
B16
100
AcDbPlotSettings
  1
8.5x11
  2
Kyocera Mita KM-1650 KX
  4
Letter
  6

 40
4.984749794006348
 41
5.069418907165527
 42
5.06939697265625
 43
4.9847412109375
 44
215.8999938964844
 45
279.3999938964844
 46
-5.027076435089054
 47
-5.02708311080938
 48
0.0000000000000036
 49
-0.0000000000000053
140
8.5
141
11.0
142
1.0
143
1.0
 70
  2724
 72
     0
 73
     0
 74
     4
  7
SWAN11X17.ctb
 75
     0
147
0.7367424736214094
148
-0.0000000000000902
149
0.0000000000001354
1001
ACAD_PSEXT
1000
Kyocera Mita KM-1650 KX
1000
Kyocera Mita KM-1650 KX
1000
IP_192.168.1.188
1000

1070
     0
  0
PLOTSETTINGS
  5
270F
102
{ACAD_REACTORS
330
B16
102
}
330
B16
100
AcDbPlotSettings
  1
PDF2436
  2
PDF-XChange Lite 3.0.pc3
  4
User265
  6

 40
3.174999952316284
 41
3.174999952316284
 42
3.17498779296875
 43
3.17498779296875
 44
914.3999633789062
 45
609.5999755859375
 46
0.0
 47
0.0
 48
0.0
 49
0.0
140
36.00000000000001
141
24.0
142
1.0
143
1.0
 70
  2736
 72
     0
 73
     0
 74
     4
  7
swan2436.ctb
 75
    16
147
1.0
148
0.0
149
0.0
1001
ACAD_PSEXT
1000
PDF-XChange Lite 3.0.pc3
1000
PDF-XChange Lite 3.0
1000
PDF-XChange
1000

1070
     0
  0
PLOTSETTINGS
  5
26FD
102
{ACAD_REACTORS
330
B16
102
}
330
B16
100
AcDbPlotSettings
  1
PLOT2436
  2
HP DesignJet 500 42 by HP.pc3
  4
User1658
  6

 40
0.0
 41
0.0
 42
0.0
 43
0.0
 44
914.4000244140625
 45
609.6000366210938
 46
0.0
 47
0.0
 48
0.0
 49
0.0
140
36.00000000000001
141
24.0
142
1.0
143
1.0
 70
  2736
 72
     0
 73
     0
 74
     4
  7
swan2436.ctb
 75
    16
147
1.0
148
0.0
149
0.0
1001
ACAD_PSEXT
1000
HP DesignJet 500 42 by HP.pc3
1000
HP DesignJet 500 42 by HP
1000
\\SWAN2003
1000

1070
     0
  0
PLOTSETTINGS
  5
2720
102
{ACAD_REACTORS
330
B16
102
}
330
B16
100
AcDbPlotSettings
  1
PRINT11X17
  2
Kyocera Mita KM-1650 KX.pc3
  4
Tabloid
  6

 40
4.984749794006348
 41
5.069418907165527
 42
5.069427490234375
 43
4.9847412109375
 44
431.7999877929688
 45
279.3999938964844
 46
0.0
 47
0.0
 48
0.0
 49
0.0
140
36.00000000000001
141
24.0
142
1.0
143
2.263261292920465
 70
  2736
 72
     0
 73
     0
 74
     4
  7
Swan_Generic_Medium.ctb
 75
     0
147
0.4418402785078434
148
0.0
149
0.0
1001
ACAD_PSEXT
1000
Kyocera Mita KM-1650 KX.pc3
1000
Kyocera Mita KM-1650 KX
1000
IP_192.168.1.188
1000

1070
     0
  0
ACAD_PROXY_OBJECT
  5
3E5F
102
{ACAD_REACTORS
330
206C
102
}
330
206C
100
AcDbProxyObject
 90
      499
 91
      510
 93
       81
310
908313A315F58524546500
  0
ACAD_PROXY_OBJECT
  5
3E77
102
{ACAD_REACTORS
330
206C
102
}
330
206C
100
AcDbProxyObject
 90
      499
 91
      510
 93
      145
310
908383A315F585245460000000000000810100
  0
ACAD_PROXY_OBJECT
  5
3E82
102
{ACAD_REACTORS
330
206C
102
}
330
206C
100
AcDbProxyObject
 90
      499
 91
      510
 93
      185
310
90D343A315F585245465F585245460000000000000410100
1001
ACAD
1000
AcRTDxfName
1000
SCALE
1000
AcRTDxfName
1000
SCALE
1000
AcRTDxfName
1000
SCALE
1000
AcRTDxfName
1000
SCALE
1000
AcRTDxfName
1000
SCALE
1000
AcRTDxfName
1000
SCALE
  0
ACAD_PROXY_OBJECT
  5
3E68
102
{ACAD_REACTORS
330
206C
102
}
330
206C
100
AcDbProxyObject
 90
      499
 91
      510
 93
      193
310
90E313A31305F585245465F585245464000000000000244000
1001
ACAD
1000
AcRTDxfName
1000
SCALE
1000
AcRTDxfName
1000
SCALE
1000
AcRTDxfName
1000
SCALE
1000
AcRTDxfName
1000
SCALE
1000
AcRTDxfName
1000
SCALE
1000
AcRTDxfName
1000
SCALE
  0
ACAD_PROXY_OBJECT
  5
3E6D
102
{ACAD_REACTORS
330
206C
102
}
330
206C
100
AcDbProxyObject
 90
      499
 91
      510
 93
      153
310
909313A31305F585245464000000000000244000
  0
ACAD_PROXY_OBJECT
  5
3E7A
102
{ACAD_REACTORS
330
206C
102
}
330
206C
100
AcDbProxyObject
 90
      499
 91
      510
 93
      201
310
90F313A3130305F585245465F585245464000000000000594000
1001
ACAD
1000
AcRTDxfName
1000
SCALE
1000
AcRTDxfName
1000
SCALE
1000
AcRTDxfName
1000
SCALE
1000
AcRTDxfName
1000
SCALE
1000
AcRTDxfName
1000
SCALE
1000
AcRTDxfName
1000
SCALE
  0
ACAD_PROXY_OBJECT
  5
3E85
102
{ACAD_REACTORS
330
206C
102
}
330
206C
100
AcDbProxyObject
 90
      499
 91
      510
 93
      145
310
908323A315F585245460000000000000010100
  0
ACAD_PROXY_OBJECT
  5
3E6F
102
{ACAD_REACTORS
330
206C
102
}
330
206C
100
AcDbProxyObject
 90
      499
 91
      510
 93
      185
310
90D313A345F585245465F585245464000000000000104000
1001
ACAD
1000
AcRTDxfName
1000
SCALE
1000
AcRTDxfName
1000
SCALE
1000
AcRTDxfName
1000
SCALE
1000
AcRTDxfName
1000
SCALE
1000
AcRTDxfName
1000
SCALE
1000
AcRTDxfName
1000
SCALE
  0
ACAD_PROXY_OBJECT
  5
3E71
102
{ACAD_REACTORS
330
206C
102
}
330
206C
100
AcDbProxyObject
 90
      499
 91
      510
 93
      161
310
90A3130303A315F585245460000000000001650100
  0
ACAD_PROXY_OBJECT
  5
3E7D
102
{ACAD_REACTORS
330
206C
102
}
330
206C
100
AcDbProxyObject
 90
      499
 91
      510
 93
      145
310
908313A325F585245464000000000000004000
  0
ACAD_PROXY_OBJECT
  5
3E63
102
{ACAD_REACTORS
330
206C
102
}
330
206C
100
AcDbProxyObject
 90
      499
 91
      510
 93
      297
310
913312D312F3222203D2031272D30225F585245460000000000003E0FC000000000000284000
  0
ACAD_PROXY_OBJECT
  5
3E70
102
{ACAD_REACTORS
330
206C
102
}
330
206C
100
AcDbProxyObject
 90
      499
 91
      510
 93
      337
310
918312F31323822203D2031272D30225F585245465F58524546000000000000200FC000000000000284000
1001
ACAD
1000
AcRTDxfName
1000
SCALE
1000
AcRTDxfName
1000
SCALE
1000
AcRTDxfName
1000
SCALE
1000
AcRTDxfName
1000
SCALE
1000
AcRTDxfName
1000
SCALE
1000
AcRTDxfName
1000
SCALE
  0
ACAD_PROXY_OBJECT
  5
3E74
102
{ACAD_REACTORS
330
206C
102
}
330
206C
100
AcDbProxyObject
 90
      499
 91
      510
 93
      185
310
90D383A315F585245465F585245460000000000000810100
1001
ACAD
1000
AcRTDxfName
1000
SCALE
1000
AcRTDxfName
1000
SCALE
1000
AcRTDxfName
1000
SCALE
1000
AcRTDxfName
1000
SCALE
1000
AcRTDxfName
1000
SCALE
1000
AcRTDxfName
1000
SCALE
  0
ACAD_PROXY_OBJECT
  5
3E80
102
{ACAD_REACTORS
330
206C
102
}
330
206C
100
AcDbProxyObject
 90
      499
 91
      510
 93
      185
310
90D313A355F585245465F585245464000000000000144000
1001
ACAD
1000
AcRTDxfName
1000
SCALE
1000
AcRTDxfName
1000
SCALE
1000
AcRTDxfName
1000
SCALE
1000
AcRTDxfName
1000
SCALE
1000
AcRTDxfName
1000
SCALE
1000
AcRTDxfName
1000
SCALE
  0
ACAD_PROXY_OBJECT
  5
3E66
102
{ACAD_REACTORS
330
206C
102
}
330
206C
100
AcDbProxyObject
 90
      499
 91
      510
 93
      153
310
90931303A315F585245460000000000000910100
  0
ACAD_PROXY_OBJECT
  5
3E76
102
{ACAD_REACTORS
330
206C
102
}
330
206C
100
AcDbProxyObject
 90
      499
 91
      510
 93
      185
310
90D323A315F585245465F585245460000000000000010100
1001
ACAD
1000
AcRTDxfName
1000
SCALE
1000
AcRTDxfName
1000
SCALE
1000
AcRTDxfName
1000
SCALE
1000
AcRTDxfName
1000
SCALE
1000
AcRTDxfName
1000
SCALE
1000
AcRTDxfName
1000
SCALE
  0
ACAD_PROXY_OBJECT
  5
3E78
102
{ACAD_REACTORS
330
206C
102
}
330
206C
100
AcDbProxyObject
 90
      499
 91
      510
 93
      145
310
908313A345F585245464000000000000104000
  0
ACAD_PROXY_OBJECT
  5
3E83
102
{ACAD_REACTORS
330
206C
102
}
330
206C
100
AcDbProxyObject
 90
      499
 91
      510
 93
      153
310
909313A35305F585245464000000000000494000
  0
ACAD_PROXY_OBJECT
  5
3E6B
102
{ACAD_REACTORS
330
206C
102
}
330
206C
100
AcDbProxyObject
 90
      499
 91
      510
 93
      257
310
90E3120312F3222203D2031272D30220000000000003E0FC000000000000284000
  0
ACAD_PROXY_OBJECT
  5
3E7B
102
{ACAD_REACTORS
330
206C
102
}
330
206C
100
AcDbProxyObject
 90
      499
 91
      510
 93
      193
310
90E31303A315F585245465F585245460000000000000910100
1001
ACAD
1000
AcRTDxfName
1000
SCALE
1000
AcRTDxfName
1000
SCALE
1000
AcRTDxfName
1000
SCALE
1000
AcRTDxfName
1000
SCALE
1000
AcRTDxfName
1000
SCALE
1000
AcRTDxfName
1000
SCALE
  0
ACAD_PROXY_OBJECT
  5
3E62
102
{ACAD_REACTORS
330
206C
102
}
330
206C
100
AcDbProxyObject
 90
      499
 91
      510
 93
      145
310
908343A315F585245460000000000000410100
  0
ACAD_PROXY_OBJECT
  5
3E6E
102
{ACAD_REACTORS
330
206C
102
}
330
206C
100
AcDbProxyObject
 90
      499
 91
      510
 93
      153
310
909313A33305F5852454640000000000003E4000
  0
ACAD_PROXY_OBJECT
  5
3E7C
102
{ACAD_REACTORS
330
206C
102
}
330
206C
100
AcDbProxyObject
 90
      499
 91
      510
 93
      193
310
90E313A34305F585245465F585245464000000000000444000
1001
ACAD
1000
AcRTDxfName
1000
SCALE
1000
AcRTDxfName
1000
SCALE
1000
AcRTDxfName
1000
SCALE
1000
AcRTDxfName
1000
SCALE
1000
AcRTDxfName
1000
SCALE
1000
AcRTDxfName
1000
SCALE
  0
ACAD_PROXY_OBJECT
  5
3E7E
102
{ACAD_REACTORS
330
206C
102
}
330
206C
100
AcDbProxyObject
 90
      499
 91
      510
 93
      201
310
90F3130303A315F585245465F585245460000000000001650100
1001
ACAD
1000
AcRTDxfName
1000
SCALE
1000
AcRTDxfName
1000
SCALE
1000
AcRTDxfName
1000
SCALE
1000
AcRTDxfName
1000
SCALE
1000
AcRTDxfName
1000
SCALE
1000
AcRTDxfName
1000
SCALE
  0
ACAD_PROXY_OBJECT
  5
3E64
102
{ACAD_REACTORS
330
206C
102
}
330
206C
100
AcDbProxyObject
 90
      499
 91
      510
 93
      145
310
908313A355F585245464000000000000144000
  0
ACAD_PROXY_OBJECT
  5
3E72
102
{ACAD_REACTORS
330
206C
102
}
330
206C
100
AcDbProxyObject
 90
      499
 91
      510
 93
      185
310
90D313A385F585245465F585245464000000000000204000
1001
ACAD
1000
AcRTDxfName
1000
SCALE
1000
AcRTDxfName
1000
SCALE
1000
AcRTDxfName
1000
SCALE
1000
AcRTDxfName
1000
SCALE
1000
AcRTDxfName
1000
SCALE
1000
AcRTDxfName
1000
SCALE
  0
ACAD_PROXY_OBJECT
  5
3E81
102
{ACAD_REACTORS
330
206C
102
}
330
206C
100
AcDbProxyObject
 90
      499
 91
      510
 93
      193
310
90E313A35305F585245465F585245464000000000000494000
1001
ACAD
1000
AcRTDxfName
1000
SCALE
1000
AcRTDxfName
1000
SCALE
1000
AcRTDxfName
1000
SCALE
1000
AcRTDxfName
1000
SCALE
1000
AcRTDxfName
1000
SCALE
1000
AcRTDxfName
1000
SCALE
  0
ACAD_PROXY_OBJECT
  5
3E6A
102
{ACAD_REACTORS
330
206C
102
}
330
206C
100
AcDbProxyObject
 90
      499
 91
      510
 93
      161
310
90A313A3130305F585245464000000000000594000
  0
ACAD_PROXY_OBJECT
  5
3E75
102
{ACAD_REACTORS
330
206C
102
}
330
206C
100
AcDbProxyObject
 90
      499
 91
      510
 93
      337
310
918312D312F3222203D2031272D30225F585245465F585245460000000000003E0FC000000000000284000
1001
ACAD
1000
AcRTDxfName
1000
SCALE
1000
AcRTDxfName
1000
SCALE
1000
AcRTDxfName
1000
SCALE
1000
AcRTDxfName
1000
SCALE
1000
AcRTDxfName
1000
SCALE
1000
AcRTDxfName
1000
SCALE
  0
ACAD_PROXY_OBJECT
  5
3E84
102
{ACAD_REACTORS
330
206C
102
}
330
206C
100
AcDbProxyObject
 90
      499
 91
      510
 93
      153
310
909313A34305F585245464000000000000444000
  0
ACAD_PROXY_OBJECT
  5
3E6C
102
{ACAD_REACTORS
330
206C
102
}
330
206C
100
AcDbProxyObject
 90
      499
 91
      510
 93
      153
310
909313A31365F585245464000000000000304000
  0
ACAD_PROXY_OBJECT
  5
3E79
102
{ACAD_REACTORS
330
206C
102
}
330
206C
100
AcDbProxyObject
 90
      499
 91
      510
 93
      121
310
90D313A315F585245465F58524546500
1001
ACAD
1000
AcRTDxfName
1000
SCALE
1000
AcRTDxfName
1000
SCALE
1000
AcRTDxfName
1000
SCALE
1000
AcRTDxfName
1000
SCALE
1000
AcRTDxfName
1000
SCALE
1000
AcRTDxfName
1000
SCALE
  0
ACAD_PROXY_OBJECT
  5
3E86
102
{ACAD_REACTORS
330
206C
102
}
330
206C
100
AcDbProxyObject
 90
      499
 91
      510
 93
      297
310
913312F31323822203D2031272D30225F58524546000000000000200FC000000000000284000
  0
ACAD_PROXY_OBJECT
  5
3E60
102
{ACAD_REACTORS
330
206C
102
}
330
206C
100
AcDbProxyObject
 90
      499
 91
      510
 93
      185
310
90D313A325F585245465F585245464000000000000004000
1001
ACAD
1000
AcRTDxfName
1000
SCALE
1000
AcRTDxfName
1000
SCALE
1000
AcRTDxfName
1000
SCALE
1000
AcRTDxfName
1000
SCALE
1000
AcRTDxfName
1000
SCALE
1000
AcRTDxfName
1000
SCALE
  0
ACAD_PROXY_OBJECT
  5
3E61
102
{ACAD_REACTORS
330
206C
102
}
330
206C
100
AcDbProxyObject
 90
      499
 91
      510
 93
      297
310
9133120312F3222203D2031272D30225F585245460000000000003E0FC000000000000284000
1001
ACAD
1000
AcRTDxfName
1000
SCALE
1000
AcRTDxfName
1000
SCALE
1000
AcRTDxfName
1000
SCALE
1000
AcRTDxfName
1000
SCALE
1000
AcRTDxfName
1000
SCALE
  0
ACAD_PROXY_OBJECT
  5
3E65
102
{ACAD_REACTORS
330
206C
102
}
330
206C
100
AcDbProxyObject
 90
      499
 91
      510
 93
      153
310
909313A32305F585245464000000000000344000
  0
ACAD_PROXY_OBJECT
  5
3E73
102
{ACAD_REACTORS
330
206C
102
}
330
206C
100
AcDbProxyObject
 90
      499
 91
      510
 93
      193
310
90E313A32305F585245465F585245464000000000000344000
1001
ACAD
1000
AcRTDxfName
1000
SCALE
1000
AcRTDxfName
1000
SCALE
1000
AcRTDxfName
1000
SCALE
1000
AcRTDxfName
1000
SCALE
1000
AcRTDxfName
1000
SCALE
1000
AcRTDxfName
1000
SCALE
  0
ACAD_PROXY_OBJECT
  5
3E7F
102
{ACAD_REACTORS
330
206C
102
}
330
206C
100
AcDbProxyObject
 90
      499
 91
      510
 93
      193
310
90E313A33305F585245465F5852454640000000000003E4000
1001
ACAD
1000
AcRTDxfName
1000
SCALE
1000
AcRTDxfName
1000
SCALE
1000
AcRTDxfName
1000
SCALE
1000
AcRTDxfName
1000
SCALE
1000
AcRTDxfName
1000
SCALE
1000
AcRTDxfName
1000
SCALE
  0
ACAD_PROXY_OBJECT
  5
3E67
102
{ACAD_REACTORS
330
206C
102
}
330
206C
100
AcDbProxyObject
 90
      499
 91
      510
 93
      145
310
908313A385F585245464000000000000204000
  0
ACAD_PROXY_OBJECT
  5
3E69
102
{ACAD_REACTORS
330
206C
102
}
330
206C
100
AcDbProxyObject
 90
      499
 91
      510
 93
      193
310
90E313A31365F585245465F585245464000000000000304000
1001
ACAD
1000
AcRTDxfName
1000
SCALE
1000
AcRTDxfName
1000
SCALE
1000
AcRTDxfName
1000
SCALE
1000
AcRTDxfName
1000
SCALE
1000
AcRTDxfName
1000
SCALE
1000
AcRTDxfName
1000
SCALE
  0
ACAD_PROXY_OBJECT
  5
206D
102
{ACAD_REACTORS
330
206C
102
}
330
206C
100
AcDbProxyObject
 90
      499
 91
      510
 93
       41
310
903313A31580
  0
ACAD_PROXY_OBJECT
  5
206E
102
{ACAD_REACTORS
330
206C
102
}
330
206C
100
AcDbProxyObject
 90
      499
 91
      510
 93
      105
310
903313A324000000000000004000
  0
ACAD_PROXY_OBJECT
  5
206F
102
{ACAD_REACTORS
330
206C
102
}
330
206C
100
AcDbProxyObject
 90
      499
 91
      510
 93
      105
310
903313A344000000000000104000
  0
ACAD_PROXY_OBJECT
  5
2070
102
{ACAD_REACTORS
330
206C
102
}
330
206C
100
AcDbProxyObject
 90
      499
 91
      510
 93
      105
310
903313A354000000000000144000
  0
ACAD_PROXY_OBJECT
  5
2071
102
{ACAD_REACTORS
330
206C
102
}
330
206C
100
AcDbProxyObject
 90
      499
 91
      510
 93
      105
310
903313A384000000000000204000
  0
ACAD_PROXY_OBJECT
  5
2072
102
{ACAD_REACTORS
330
206C
102
}
330
206C
100
AcDbProxyObject
 90
      499
 91
      510
 93
      113
310
904313A31304000000000000244000
  0
ACAD_PROXY_OBJECT
  5
2073
102
{ACAD_REACTORS
330
206C
102
}
330
206C
100
AcDbProxyObject
 90
      499
 91
      510
 93
      113
310
904313A31364000000000000304000
  0
ACAD_PROXY_OBJECT
  5
2074
102
{ACAD_REACTORS
330
206C
102
}
330
206C
100
AcDbProxyObject
 90
      499
 91
      510
 93
      113
310
904313A32304000000000000344000
  0
ACAD_PROXY_OBJECT
  5
2075
102
{ACAD_REACTORS
330
206C
102
}
330
206C
100
AcDbProxyObject
 90
      499
 91
      510
 93
      113
310
904313A333040000000000003E4000
  0
ACAD_PROXY_OBJECT
  5
2076
102
{ACAD_REACTORS
330
206C
102
}
330
206C
100
AcDbProxyObject
 90
      499
 91
      510
 93
      113
310
904313A34304000000000000444000
  0
ACAD_PROXY_OBJECT
  5
2077
102
{ACAD_REACTORS
330
206C
102
}
330
206C
100
AcDbProxyObject
 90
      499
 91
      510
 93
      113
310
904313A35304000000000000494000
  0
ACAD_PROXY_OBJECT
  5
2078
102
{ACAD_REACTORS
330
206C
102
}
330
206C
100
AcDbProxyObject
 90
      499
 91
      510
 93
      121
310
905313A3130304000000000000594000
  0
ACAD_PROXY_OBJECT
  5
2079
102
{ACAD_REACTORS
330
206C
102
}
330
206C
100
AcDbProxyObject
 90
      499
 91
      510
 93
      105
310
903323A310000000000000010100
  0
ACAD_PROXY_OBJECT
  5
207A
102
{ACAD_REACTORS
330
206C
102
}
330
206C
100
AcDbProxyObject
 90
      499
 91
      510
 93
      105
310
903343A310000000000000410100
  0
ACAD_PROXY_OBJECT
  5
207B
102
{ACAD_REACTORS
330
206C
102
}
330
206C
100
AcDbProxyObject
 90
      499
 91
      510
 93
      105
310
903383A310000000000000810100
  0
ACAD_PROXY_OBJECT
  5
207C
102
{ACAD_REACTORS
330
206C
102
}
330
206C
100
AcDbProxyObject
 90
      499
 91
      510
 93
      113
310
90431303A310000000000000910100
  0
ACAD_PROXY_OBJECT
  5
207D
102
{ACAD_REACTORS
330
206C
102
}
330
206C
100
AcDbProxyObject
 90
      499
 91
      510
 93
      121
310
9053130303A310000000000001650100
  0
ACAD_PROXY_OBJECT
  5
207E
102
{ACAD_REACTORS
330
206C
102
}
330
206C
100
AcDbProxyObject
 90
      499
 91
      510
 93
      257
310
90E312F31323822203D2031272D3022000000000000200FC000000000000284000
  0
ACAD_PROXY_OBJECT
  5
207F
102
{ACAD_REACTORS
330
206C
102
}
330
206C
100
AcDbProxyObject
 90
      499
 91
      510
 93
      249
310
90D312F363422203D2031272D3022000000000000240FC000000000000284000
  0
ACAD_PROXY_OBJECT
  5
2080
102
{ACAD_REACTORS
330
206C
102
}
330
206C
100
AcDbProxyObject
 90
      499
 91
      510
 93
      249
310
90D312F333222203D2031272D3022000000000000280FC000000000000284000
  0
ACAD_PROXY_OBJECT
  5
2081
102
{ACAD_REACTORS
330
206C
102
}
330
206C
100
AcDbProxyObject
 90
      499
 91
      510
 93
      249
310
90D312F313622203D2031272D30220000000000002C0FC000000000000284000
  0
ACAD_PROXY_OBJECT
  5
2082
102
{ACAD_REACTORS
330
206C
102
}
330
206C
100
AcDbProxyObject
 90
      499
 91
      510
 93
      249
310
90D332F333222203D2031272D30220000000000002E0FC000000000000284000
  0
ACAD_PROXY_OBJECT
  5
2083
102
{ACAD_REACTORS
330
206C
102
}
330
206C
100
AcDbProxyObject
 90
      499
 91
      510
 93
      241
310
90C312F3822203D2031272D3022000000000000300FC000000000000284000
  0
ACAD_PROXY_OBJECT
  5
2084
102
{ACAD_REACTORS
330
206C
102
}
330
206C
100
AcDbProxyObject
 90
      499
 91
      510
 93
      249
310
90D332F313622203D2031272D3022000000000000320FC000000000000284000
  0
ACAD_PROXY_OBJECT
  5
2085
102
{ACAD_REACTORS
330
206C
102
}
330
206C
100
AcDbProxyObject
 90
      499
 91
      510
 93
      241
310
90C312F3422203D2031272D3022000000000000340FC000000000000284000
  0
ACAD_PROXY_OBJECT
  5
2086
102
{ACAD_REACTORS
330
206C
102
}
330
206C
100
AcDbProxyObject
 90
      499
 91
      510
 93
      241
310
90C332F3822203D2031272D3022000000000000360FC000000000000284000
  0
ACAD_PROXY_OBJECT
  5
2087
102
{ACAD_REACTORS
330
206C
102
}
330
206C
100
AcDbProxyObject
 90
      499
 91
      510
 93
      241
310
90C312F3222203D2031272D3022000000000000380FC000000000000284000
  0
ACAD_PROXY_OBJECT
  5
2088
102
{ACAD_REACTORS
330
206C
102
}
330
206C
100
AcDbProxyObject
 90
      499
 91
      510
 93
      241
310
90C332F3422203D2031272D30220000000000003A0FC000000000000284000
  0
ACAD_PROXY_OBJECT
  5
2089
102
{ACAD_REACTORS
330
206C
102
}
330
206C
100
AcDbProxyObject
 90
      499
 91
      510
 93
      161
310
90A3122203D2031272D30224000000000000284000
  0
ACAD_PROXY_OBJECT
  5
208A
102
{ACAD_REACTORS
330
206C
102
}
330
206C
100
AcDbProxyObject
 90
      499
 91
      510
 93
      257
310
90E312D312F3222203D2031272D30220000000000003E0FC000000000000284000
  0
ACAD_PROXY_OBJECT
  5
208B
102
{ACAD_REACTORS
330
206C
102
}
330
206C
100
AcDbProxyObject
 90
      499
 91
      510
 93
      225
310
90A3322203D2031272D302200000000000002100000000000000284000
  0
ACAD_PROXY_OBJECT
  5
208C
102
{ACAD_REACTORS
330
206C
102
}
330
206C
100
AcDbProxyObject
 90
      499
 91
      510
 93
      225
310
90A3622203D2031272D302200000000000006100000000000000284000
  0
ACAD_PROXY_OBJECT
  5
208D
102
{ACAD_REACTORS
330
206C
102
}
330
206C
100
AcDbProxyObject
 90
      499
 91
      510
 93
      249
310
90D31272D3022203D2031272D30220000000000000A100000000000000284000
  0
ACAD_PROXY_OBJECT
  5
205E
102
{ACAD_REACTORS
330
2058
102
}
330
2058
100
AcDbProxyObject
 90
      499
 91
      508
 93
      436
310
42CC9915DA5C99599C985B595049028333333333333E3BF0000000000000FB0107901411070040501600405405064090741402480A0340
1001
ACAD
1000
AcDbSavedByObjectVersion
1070
     0
  0
ACAD_PROXY_OBJECT
  5
2060
102
{ACAD_REACTORS
330
2058
102
}
330
2058
100
AcDbProxyObject
 90
      499
 91
      508
 93
      500
310
424CD108121A5919195B90640502408333333333333E3BF0000000000000FB01079024090700405020000000000001110200405405064090740C02480A0340
1001
ACAD
1000
AcDbSavedByObjectVersion
1070
     0
  0
ACAD_PROXY_OBJECT
  5
205F
102
{ACAD_REACTORS
330
2058
102
}
330
2058
100
AcDbProxyObject
 90
      499
 91
      508
 93
      436
310
42CCD915DA5C99599C985B595059028333333333333E3BF0000000000000FB0107901411070040501600405405064090741402480A0340
1001
ACAD
1000
AcDbSavedByObjectVersion
1070
     0
  0
ACAD_PROXY_OBJECT
  5
205D
102
{ACAD_REACTORS
330
2058
102
}
330
2058
100
AcDbProxyObject
 90
      499
 91
      508
 93
      388
310
4150985CDA58D07406404333333333333E3BF0000000000000FB0107A41107004050150841D405064090741402480A0350
1001
ACAD
1000
AcDbSavedByObjectVersion
1070
     0
  0
ACAD_PROXY_OBJECT
  5
2064
102
{ACAD_REACTORS
330
2058
102
}
330
2058
100
AcDbProxyObject
 90
      499
 91
      508
 93
      428
310
42109C9A59DA1D195B90C409028333333333333E3BF0000000000000FB010790141107004050150841D405064090741402480A029950
1001
ACAD
1000
AcDbSavedByObjectVersion
1070
     0
  0
ACAD_PROXY_OBJECT
  5
2068
102
{ACAD_REACTORS
330
2058
102
}
330
2058
100
AcDbProxyObject
 90
      499
 91
      508
 93
      452
310
42D0DBDB1BDC90DA185B99D95104090240C333333333333E3BF0000000000000FB0108901411070040501508421405064090741402480A0350
1001
ACAD
1000
AcDbSavedByObjectVersion
1070
     0
  0
ACAD_PROXY_OBJECT
  5
2061
102
{ACAD_REACTORS
330
2058
102
}
330
2058
100
AcDbProxyObject
 90
      499
 91
      508
 93
      500
310
4290DBDB98D95C1D1D585B10940D028333333333333E3BF0000000000000FB0107902409070040501000000000000111010841D405064090740C02480A0340
1001
ACAD
1000
AcDbSavedByObjectVersion
1070
     0
  0
ACAD_PROXY_OBJECT
  5
2063
102
{ACAD_REACTORS
330
2058
102
}
330
2058
100
AcDbProxyObject
 90
      499
 91
      508
 93
      412
310
40D11A5B50B409028333333333333E3BF0000000000000FB010790141107004050150841D405064090741402480A02677FFFFFD0
1001
ACAD
1000
AcDbSavedByObjectVersion
1070
     0
  0
ACAD_PROXY_OBJECT
  5
2067
102
{ACAD_REACTORS
330
2058
102
}
330
2058
100
AcDbProxyObject
 90
      499
 91
      508
 93
      444
310
42D19858D95C185D1D195C9B90F409028333333333333E3BF0000000000000FB010790141107004050150841D405064090741402480A0350
1001
ACAD
1000
AcDbSavedByObjectVersion
1070
     0
  0
ACAD_PROXY_OBJECT
  5
2059
102
{ACAD_REACTORS
330
2058
102
}
330
2058
100
AcDbProxyObject
 90
      499
 91
      508
 93
      388
310
41119B185D240901404333333333333E3BF0000000000000F9010740A41107004050150841D405064090741402480A1B50
1001
ACAD
1000
AcDbSavedByObjectVersion
1070
     0
  0
ACAD_PROXY_OBJECT
  5
205A
102
{ACAD_REACTORS
330
2058
102
}
330
2058
100
AcDbProxyObject
 90
      499
 91
      508
 93
      476
310
43519B185D15DA5D1A115919D95CD0140901404333333333333E3BF0000000000000F9010740901411070040501600405405064090741402480A1B50
1001
ACAD
1000
AcDbSavedByObjectVersion
1070
     0
  0
ACAD_PROXY_OBJECT
  5
205B
102
{ACAD_REACTORS
330
2058
102
}
330
2058
100
AcDbProxyObject
 90
      499
 91
      508
 93
      412
310
41D1DBDD5C985D5910240902404333333333333E3BF0000000000000F9010740A411070040501641D405064090741402480A1B50
1001
ACAD
1000
AcDbSavedByObjectVersion
1070
     0
  0
ACAD_PROXY_OBJECT
  5
205C
102
{ACAD_REACTORS
330
2058
102
}
330
2058
100
AcDbProxyObject
 90
      499
 91
      508
 93
      500
310
4411DBDD5C985D5915DA5D1A115919D95CD0340902404333333333333E3BF0000000000000F9010740901411070040501600405405064090741402480A1B50
1001
ACAD
1000
AcDbSavedByObjectVersion
1070
     0
  0
ACAD_PROXY_OBJECT
  5
2066
102
{ACAD_REACTORS
330
2058
102
}
330
2058
100
AcDbProxyObject
 90
      499
 91
      508
 93
      444
310
42D31A5B995C185D1D195C9B90E409028333333333333E3BF0000000000000FB010790141107004050750841D405064090741402483A0350
1001
ACAD
1000
AcDbSavedByObjectVersion
1070
     0
  0
ACAD_PROXY_OBJECT
  5
2062
102
{ACAD_REACTORS
330
2058
102
}
330
2058
100
AcDbProxyObject
 90
      499
 91
      508
 93
      420
310
425499585B1A5CDD1A58D08409028333333333333E3BF0000000000000FB01079019070040501508421405064090741402480A1B40
1001
ACAD
1000
AcDbSavedByObjectVersion
1070
     0
  0
ACAD_PROXY_OBJECT
  5
2065
102
{ACAD_REACTORS
330
2058
102
}
330
2058
100
AcDbProxyObject
 90
      499
 91
      508
 93
      412
310
41D51A1A58DAD95B90D409028333333333333E3BF0000000000000FB010790141107004050150C41D405064090741402480A0350
1001
ACAD
1000
AcDbSavedByObjectVersion
1070
     0
  0
XRECORD
  5
5025
102
{ACAD_REACTORS
330
501C
102
}
330
501C
100
AcDbXrecord
 90
        0
  0
XRECORD
  5
503F
102
{ACAD_REACTORS
330
501C
102
}
330
501C
100
AcDbXrecord
340
2069
  0
XRECORD
  5
503B
102
{ACAD_REACTORS
330
501C
102
}
330
501C
100
AcDbXrecord
1000
DSTYLE
1002
{
1070
    41
 40
0.125
1070
   343
340
55
1070
   344
340
55
1070
   141
 40
0.0625
1070
    46
 40
0.0625
1070
    43
 40
0.0625
1070
    44
 40
0.0625
1070
   147
 40
0.0625
1070
   277
 70
     4
1070
   173
 70
     1
1070
    40
 40
2.6
1070
    77
 70
     1
1070
    73
 70
     0
1070
   279
 70
     2
1070
    74
 70
     0
1070
   340
340
5E
1070
   140
 40
0.09375
1070
    78
 70
     3
1002
}
  0
XRECORD
  5
5026
102
{ACAD_REACTORS
330
501C
102
}
330
501C
100
AcDbXrecord
  1
{FE848CDE-04E3-4546-9EE7-23DCF3942B06}
  0
XRECORD
  5
501F
102
{ACAD_REACTORS
330
501C
102
}
330
501C
100
AcDbXrecord
  1

  0
XRECORD
  5
5024
102
{ACAD_REACTORS
330
501C
102
}
330
501C
100
AcDbXrecord
 90
        1
  0
XRECORD
  5
5021
102
{ACAD_REACTORS
330
501C
102
}
330
501C
100
AcDbXrecord
340
B15
  0
XRECORD
  5
5023
102
{ACAD_REACTORS
330
501C
102
}
330
501C
100
AcDbXrecord
 90
    10781
  0
XRECORD
  5
5040
102
{ACAD_REACTORS
330
501C
102
}
330
501C
100
AcDbXrecord
340
203F
  0
XRECORD
  5
5022
102
{ACAD_REACTORS
330
501C
102
}
330
501C
100
AcDbXrecord
340
B16
  0
XRECORD
  5
5028
102
{ACAD_REACTORS
330
501C
102
}
330
501C
100
AcDbXrecord
 40
0.0
  0
XRECORD
  5
502B
102
{ACAD_REACTORS
330
501C
102
}
330
501C
100
AcDbXrecord
340
0
  0
XRECORD
  5
5031
102
{ACAD_REACTORS
330
501C
102
}
330
501C
100
AcDbXrecord
 10
0.0
 20
0.0
 30
0.0
  0
XRECORD
  5
502D
102
{ACAD_REACTORS
330
501C
102
}
330
501C
100
AcDbXrecord
 10
0.0
 20
0.0
 30
0.0
  0
XRECORD
  5
5030
102
{ACAD_REACTORS
330
501C
102
}
330
501C
100
AcDbXrecord
 10
0.0
 20
0.0
 30
0.0
  0
XRECORD
  5
502E
102
{ACAD_REACTORS
330
501C
102
}
330
501C
100
AcDbXrecord
 10
0.0
 20
0.0
 30
0.0
  0
XRECORD
  5
502F
102
{ACAD_REACTORS
330
501C
102
}
330
501C
100
AcDbXrecord
 10
0.0
 20
0.0
 30
0.0
  0
XRECORD
  5
502C
102
{ACAD_REACTORS
330
501C
102
}
330
501C
100
AcDbXrecord
 10
0.0
 20
0.0
 30
0.0
  0
XRECORD
  5
5029
102
{ACAD_REACTORS
330
501C
102
}
330
501C
100
AcDbXrecord
340
0
  0
XRECORD
  5
502A
102
{ACAD_REACTORS
330
501C
102
}
330
501C
100
AcDbXrecord
 70
     0
  0
XRECORD
  5
5020
102
{ACAD_REACTORS
330
501C
102
}
330
501C
100
AcDbXrecord
  1

  0
XRECORD
  5
501D
102
{ACAD_REACTORS
330
501C
102
}
330
501C
100
AcDbXrecord
 90
        1
  0
XRECORD
  5
501E
102
{ACAD_REACTORS
330
501C
102
}
330
501C
100
AcDbXrecord
 90
       70
  0
XRECORD
  5
5034
102
{ACAD_REACTORS
330
501C
102
}
330
501C
100
AcDbXrecord
340
0
  0
XRECORD
  5
503A
102
{ACAD_REACTORS
330
501C
102
}
330
501C
100
AcDbXrecord
 10
0.0
 20
0.0
 30
0.0
  0
XRECORD
  5
5036
102
{ACAD_REACTORS
330
501C
102
}
330
501C
100
AcDbXrecord
 10
0.0
 20
0.0
 30
0.0
  0
XRECORD
  5
5039
102
{ACAD_REACTORS
330
501C
102
}
330
501C
100
AcDbXrecord
 10
0.0
 20
0.0
 30
0.0
  0
XRECORD
  5
5037
102
{ACAD_REACTORS
330
501C
102
}
330
501C
100
AcDbXrecord
 10
0.0
 20
0.0
 30
0.0
  0
XRECORD
  5
5038
102
{ACAD_REACTORS
330
501C
102
}
330
501C
100
AcDbXrecord
 10
0.0
 20
0.0
 30
0.0
  0
XRECORD
  5
5035
102
{ACAD_REACTORS
330
501C
102
}
330
501C
100
AcDbXrecord
 10
0.0
 20
0.0
 30
0.0
  0
XRECORD
  5
5032
102
{ACAD_REACTORS
330
501C
102
}
330
501C
100
AcDbXrecord
340
0
  0
XRECORD
  5
5033
102
{ACAD_REACTORS
330
501C
102
}
330
501C
100
AcDbXrecord
 70
     0
  0
XRECORD
  5
5027
102
{ACAD_REACTORS
330
501C
102
}
330
501C
100
AcDbXrecord
  1
{740A5D4C-6B2E-49A4-AAB2-884A9E3B02F3}
  0
DICTIONARYVAR
  5
503D
102
{ACAD_REACTORS
330
B76
102
}
330
B76
100
DictionaryVariables
280
     0
  1
1:1
  0
DICTIONARYVAR
  5
209E
102
{ACAD_REACTORS
330
B76
102
}
330
B76
100
DictionaryVariables
280
     0
  1
Standard
  0
DICTIONARYVAR
  5
B77
102
{ACAD_REACTORS
330
B76
102
}
330
B76
100
DictionaryVariables
280
     0
  1
1
  0
DICTIONARYVAR
  5
503E
102
{ACAD_REACTORS
330
B76
102
}
330
B76
100
DictionaryVariables
280
     0
  1
1
  0
DICTIONARYVAR
  5
226D
102
{ACAD_REACTORS
330
B76
102
}
330
B76
100
DictionaryVariables
280
     0
  1
0
  0
DICTIONARYVAR
  5
20A2
102
{ACAD_REACTORS
330
B76
102
}
330
B76
100
DictionaryVariables
280
     0
  1
0
  0
DICTIONARYVAR
  5
20A1
102
{ACAD_REACTORS
330
B76
102
}
330
B76
100
DictionaryVariables
280
     0
  1
0
  0
DICTIONARYVAR
  5
209F
102
{ACAD_REACTORS
330
B76
102
}
330
B76
100
DictionaryVariables
280
     0
  1
0
  0
DICTIONARYVAR
  5
226C
102
{ACAD_REACTORS
330
B76
102
}
330
B76
100
DictionaryVariables
280
     0
  1
127
  0
XRECORD
  5
986
102
{ACAD_REACTORS
330
102
102
}
330
102
100
AcDbXrecord
330
0
330
0
330
0
330
0
330
0
330
0
330
0
330
0
330
0
330
0
330
0
330
0
330
0
330
0
330
0
330
0
330
0
330
0
330
0
330
0
330
0
330
0
330
0
330
0
330
0
330
0
330
0
330
0
330
0
330
0
330
0
330
0
330
0
330
0
330
0
330
0
330
0
330
0
330
0
330
0
330
0
330
0
330
0
330
0
330
0
330
0
330
0
330
0
330
0
330
0
330
0
330
0
330
0
330
0
330
0
330
0
330
0
330
0
330
0
330
0
330
0
330
0
330
0
330
0
330
0
330
0
330
0
330
0
330
0
330
0
330
0
330
0
330
0
330
0
330
0
330
0
330
0
330
0
330
0
330
0
330
0
330
0
330
0
330
0
330
0
330
0
330
0
330
0
330
0
330
0
330
0
330
0
330
0
330
0
330
0
330
0
330
0
330
0
330
0
330
0
330
0
330
0
330
0
330
0
330
0
330
0
330
0
330
0
330
0
330
0
330
0
330
0
330
0
330
0
330
0
330
0
330
0
330
0
330
0
330
0
330
0
330
0
330
0
330
0
330
0
330
0
330
0
330
0
330
0
330
0
330
0
330
0
330
0
330
0
330
0
330
0
330
0
330
0
330
0
330
0
330
0
330
0
330
0
330
0
330
0
330
0
330
0
330
0
330
0
330
0
330
0
330
0
330
0
330
0
330
0
330
0
330
0
330
0
330
0
330
0
330
0
330
0
330
0
330
0
330
0
330
0
330
0
330
0
330
0
330
0
330
0
330
0
330
0
330
0
330
0
  0
XRECORD
  5
987
102
{ACAD_REACTORS
330
102
102
}
330
102
100
AcDbXrecord
330
0
  0
XRECORD
  5
B10
102
{ACAD_REACTORS
330
21A
102
}
330
21A
100
AcDbXrecord
 40
0.0354262730106711
  0
DICTIONARY
  5
5044
330
2048
100
AcDbDictionary
280
     1
  3
ACAD_XREC_ROUNDTRIP
360
5045
  0
DICTIONARY
  5
5046
330
2040
100
AcDbDictionary
280
     1
  3
ACAD_XREC_ROUNDTRIP
360
5047
  0
DICTIONARY
  5
5048
330
2050
100
AcDbDictionary
280
     1
  3
ACAD_XREC_ROUNDTRIP
360
5049
  0
XRECORD
  5
5045
102
{ACAD_REACTORS
330
5044
102
}
330
5044
100
AcDbXrecord
102
MATERIAL
148
0.0
149
0.0
149
0.0
 93
        0
 94
      127
282
     0
 72
     0
 77
     0
171
     0
175
     0
179
     0
273
     0
  0
XRECORD
  5
5047
102
{ACAD_REACTORS
330
5046
102
}
330
5046
100
AcDbXrecord
102
MATERIAL
148
0.0
149
0.0
149
0.0
 93
        0
 94
      127
282
     0
 72
     0
 77
     0
171
     0
175
     0
179
     0
273
     0
  0
XRECORD
  5
5049
102
{ACAD_REACTORS
330
5048
102
}
330
5048
100
AcDbXrecord
102
MATERIAL
148
0.0
149
0.0
149
0.0
 93
        0
 94
      127
282
     0
 72
     0
 77
     0
171
     0
175
     0
179
     0
273
     0
  0
ENDSEC
  0
EOF
