  0
SECTION
  2
HEADER
  9
$ACADVER
  1
AC1014
  9
$ACADMAINTVER
 70
     9
  9
$DWGCODEPAGE
  3
ANSI_1252
  9
$INSBASE
 10
0.0
 20
0.0
 30
0.0
  9
$EXTMIN
 10
1526.484514925723
 20
995.5656115786229
 30
0.0
  9
$EXTMAX
 10
1572.433375997019
 20
1035.084164055699
 30
0.0
  9
$LIMMIN
 10
0.0
 20
0.0
  9
$LIMMAX
 10
4800.0
 20
3600.0
  9
$ORTHOMODE
 70
     1
  9
$REGENMODE
 70
     1
  9
$FILLMODE
 70
     1
  9
$QTEXTMODE
 70
     0
  9
$MIRRTEXT
 70
     0
  9
$DRAGMODE
 70
     2
  9
$LTSCALE
 40
2.0
  9
$OSMODE
 70
    37
  9
$ATTMODE
 70
     1
  9
$TEXTSIZE
 40
4.5
  9
$TRACEWID
 40
0.05
  9
$TEXTSTYLE
  7
ROMANS
  9
$CLAYER
  8
DEFPOINTS
  9
$CELTYPE
  6
BYLAYER
  9
$CECOLOR
 62
   256
  9
$CELTSCALE
 40
1.0
  9
$DELOBJ
 70
     1
  9
$DISPSILH
 70
     0
  9
$DIMSCALE
 40
2.6
  9
$DIMASZ
 40
0.125
  9
$DIMEXO
 40
0.0625
  9
$DIMDLI
 40
0.0625
  9
$DIMRND
 40
0.0
  9
$DIMDLE
 40
0.0625
  9
$DIMEXE
 40
0.0625
  9
$DIMTP
 40
0.0
  9
$DIMTM
 40
0.0
  9
$DIMTXT
 40
0.09375
  9
$DIMCEN
 40
0.0625
  9
$DIMTSZ
 40
0.0
  9
$DIMTOL
 70
     0
  9
$DIMLIM
 70
     0
  9
$DIMTIH
 70
     0
  9
$DIMTOH
 70
     0
  9
$DIMSE1
 70
     0
  9
$DIMSE2
 70
     0
  9
$DIMTAD
 70
     1
  9
$DIMZIN
 70
     3
  9
$DIMBLK
  1

  9
$DIMASO
 70
     1
  9
$DIMSHO
 70
     1
  9
$DIMPOST
  1

  9
$DIMAPOST
  1

  9
$DIMALT
 70
     0
  9
$DIMALTD
 70
     2
  9
$DIMALTF
 40
25.4
  9
$DIMLFAC
 40
1.0
  9
$DIMTOFL
 70
     0
  9
$DIMTVP
 40
0.0
  9
$DIMTIX
 70
     0
  9
$DIMSOXD
 70
     0
  9
$DIMSAH
 70
     1
  9
$DIMBLK1
  1
ARCHTICK
  9
$DIMBLK2
  1
ARCHTICK
  9
$DIMSTYLE
  2
DIM-2
  9
$DIMCLRD
 70
     0
  9
$DIMCLRE
 70
     0
  9
$DIMCLRT
 70
     0
  9
$DIMTFAC
 40
1.0
  9
$DIMGAP
 40
0.0625
  9
$DIMJUST
 70
     0
  9
$DIMSD1
 70
     0
  9
$DIMSD2
 70
     0
  9
$DIMTOLJ
 70
     1
  9
$DIMTZIN
 70
     0
  9
$DIMALTZ
 70
     0
  9
$DIMALTTZ
 70
     0
  9
$DIMFIT
 70
     5
  9
$DIMUPT
 70
     0
  9
$DIMUNIT
 70
     4
  9
$DIMDEC
 70
     4
  9
$DIMTDEC
 70
     4
  9
$DIMALTU
 70
     2
  9
$DIMALTTD
 70
     2
  9
$DIMTXSTY
  7
ROMANS
  9
$DIMAUNIT
 70
     0
  9
$LUNITS
 70
     4
  9
$LUPREC
 70
     4
  9
$SKETCHINC
 40
0.1
  9
$FILLETRAD
 40
0.0
  9
$AUNITS
 70
     0
  9
$AUPREC
 70
     0
  9
$MENU
  1
.
  9
$ELEVATION
 40
0.0
  9
$PELEVATION
 40
0.0
  9
$THICKNESS
 40
0.0
  9
$LIMCHECK
 70
     0
  9
$CHAMFERA
 40
0.0
  9
$CHAMFERB
 40
0.0
  9
$CHAMFERC
 40
1.0
  9
$CHAMFERD
 40
0.0
  9
$SKPOLY
 70
     0
  9
$TDCREATE
 40
2455134.28469816
  9
$TDUPDATE
 40
2455328.49354184
  9
$TDINDWG
 40
0.2849276389
  9
$TDUSRTIMER
 40
0.2849269213
  9
$USRTIMER
 70
     1
  9
$ANGBASE
 50
0.0
  9
$ANGDIR
 70
     0
  9
$PDMODE
 70
    34
  9
$PDSIZE
 40
0.0
  9
$PLINEWID
 40
0.0
  9
$COORDS
 70
     1
  9
$SPLFRAME
 70
     0
  9
$SPLINETYPE
 70
     6
  9
$SPLINESEGS
 70
     8
  9
$ATTDIA
 70
     0
  9
$ATTREQ
 70
     1
  9
$HANDLING
 70
     1
  9
$HANDSEED
  5
51C0
  9
$SURFTAB1
 70
     6
  9
$SURFTAB2
 70
     6
  9
$SURFTYPE
 70
     6
  9
$SURFU
 70
     6
  9
$SURFV
 70
     6
  9
$UCSNAME
  2

  9
$UCSORG
 10
0.0
 20
0.0
 30
0.0
  9
$UCSXDIR
 10
1.0
 20
0.0
 30
0.0
  9
$UCSYDIR
 10
0.0
 20
1.0
 30
0.0
  9
$PUCSNAME
  2

  9
$PUCSORG
 10
0.0
 20
0.0
 30
0.0
  9
$PUCSXDIR
 10
1.0
 20
0.0
 30
0.0
  9
$PUCSYDIR
 10
0.0
 20
1.0
 30
0.0
  9
$USERI1
 70
     0
  9
$USERI2
 70
     0
  9
$USERI3
 70
     0
  9
$USERI4
 70
     0
  9
$USERI5
 70
     0
  9
$USERR1
 40
0.0
  9
$USERR2
 40
0.0
  9
$USERR3
 40
0.0
  9
$USERR4
 40
0.0
  9
$USERR5
 40
0.0
  9
$WORLDVIEW
 70
     1
  9
$SHADEDGE
 70
     3
  9
$SHADEDIF
 70
    70
  9
$TILEMODE
 70
     0
  9
$MAXACTVP
 70
    48
  9
$PINSBASE
 10
0.0
 20
0.0
 30
0.0
  9
$PLIMCHECK
 70
     0
  9
$PEXTMIN
 10
-0.0002593796237598
 20
-0.0003356677483985
 30
-0.0015258207003583
  9
$PEXTMAX
 10
8.500259419204973
 20
11.00033571897114
 30
0.0000000349246037
  9
$PLIMMIN
 10
0.0562725145632888
 20
0.0690491114654651
  9
$PLIMMAX
 10
8.447017216265106
 20
10.92765997166995
  9
$UNITMODE
 70
     0
  9
$VISRETAIN
 70
     1
  9
$PLINEGEN
 70
     0
  9
$PSLTSCALE
 70
     0
  9
$TREEDEPTH
 70
  3020
  9
$PICKSTYLE
 70
     1
  9
$CMLSTYLE
  2
STANDARD
  9
$CMLJUST
 70
     0
  9
$CMLSCALE
 40
1.0
  9
$PROXYGRAPHICS
 70
     1
  9
$MEASUREMENT
 70
     0
  0
ENDSEC
  0
SECTION
  2
CLASSES
  0
CLASS
  1
LWPOLYLINE
  2
AcDbPolyline
  3
AutoCAD 2000
 90
        0
280
     0
281
     1
  0
CLASS
  1
XRECORD
  2
AcDbXrecord
  3
AutoCAD 2000
 90
        0
280
     0
281
     0
  0
CLASS
  1
ACDBDICTIONARYWDFLT
  2
AcDbDictionaryWithDefault
  3
ObjectDBX Classes
 90
        0
280
     0
281
     0
  0
CLASS
  1
ACDBPLACEHOLDER
  2
AcDbPlaceHolder
  3
ObjectDBX Classes
 90
        0
280
     0
281
     0
  0
CLASS
  1
LAYOUT
  2
AcDbLayout
  3
ObjectDBX Classes
 90
        0
280
     0
281
     0
  0
CLASS
  1
DICTIONARYVAR
  2
AcDbDictionaryVar
  3
ObjectDBX Classes
 90
        0
280
     0
281
     0
  0
CLASS
  1
PLOTSETTINGS
  2
AcDbPlotSettings
  3
ObjectDBX Classes
 90
        0
280
     0
281
     0
  0
CLASS
  1
MATERIAL
  2
AcDbMaterial
  3
ObjectDBX Classes
 90
     1153
280
     0
281
     0
  0
CLASS
  1
VISUALSTYLE
  2
AcDbVisualStyle
  3
ObjectDBX Classes
 90
     4095
280
     0
281
     0
  0
CLASS
  1
TABLESTYLE
  2
AcDbTableStyle
  3
ObjectDBX Classes
 90
     4095
280
     0
281
     0
  0
CLASS
  1
SCALE
  2
AcDbScale
  3
ObjectDBX Classes
 90
     1153
280
     0
281
     0
  0
CLASS
  1
MLEADERSTYLE
  2
AcDbMLeaderStyle
  3
ACDB_MLEADERSTYLE_CLASS
 90
     4095
280
     0
281
     0
  0
CLASS
  1
EXACXREFPANELOBJECT
  2
ExAcXREFPanelObject
  3
EXAC_ESW
 90
     1025
280
     1
281
     0
  0
CLASS
  1
NPOCOLLECTION
  2
AcDbImpNonPersistentObjectsCollection
  3
ObjectDBX Classes
 90
     1153
280
     1
281
     0
  0
CLASS
  1
CELLSTYLEMAP
  2
AcDbCellStyleMap
  3
ObjectDBX Classes
 90
     1152
280
     0
281
     0
  0
CLASS
  1
SORTENTSTABLE
  2
AcDbSortentsTable
  3
ObjectDBX Classes
 90
        0
280
     0
281
     0
  0
CLASS
  1
RASTERVARIABLES
  2
AcDbRasterVariables
  3
ISM
 90
        0
280
     0
281
     0
  0
CLASS
  1
IMAGEDEF
  2
AcDbRasterImageDef
  3
ISM
 90
        0
280
     0
281
     0
  0
CLASS
  1
IMAGEDEF_REACTOR
  2
AcDbRasterImageDefReactor
  3
ISM
 90
        1
280
     0
281
     0
  0
CLASS
  1
IMAGE
  2
AcDbRasterImage
  3
ISM
 90
      127
280
     0
281
     1
  0
CLASS
  1
HATCH
  2
AcDbHatch
  3
AutoCAD 2000
 90
        0
280
     0
281
     1
  0
ENDSEC
  0
SECTION
  2
TABLES
  0
TABLE
  2
VPORT
  5
8
102
{ACAD_XDICTIONARY
360
51B8
102
}
330
0
100
AcDbSymbolTable
 70
     1
  0
VPORT
  5
2389
330
8
100
AcDbSymbolTableRecord
100
AcDbViewportTableRecord
  2
*ACTIVE
 70
     0
 10
0.0
 20
0.0
 11
1.0
 21
1.0
 12
1576.862253015048
 22
1009.045787618236
 13
0.0
 23
0.0
 14
2.0
 24
2.0
 15
0.5
 25
0.5
 16
0.0
 26
0.0
 36
1.0
 17
0.0
 27
0.0
 37
0.0
 40
100.2822354268581
 41
2.070773263433814
 42
50.0
 43
0.0
 44
0.0
 50
0.0
 51
0.0
 71
     0
 72
  5000
 73
     1
 74
     0
 75
     0
 76
     0
 77
     0
 78
     0
  0
ENDTAB
  0
TABLE
  2
LTYPE
  5
5
330
0
100
AcDbSymbolTable
 70
     2
  0
LTYPE
  5
12
330
5
100
AcDbSymbolTableRecord
100
AcDbLinetypeTableRecord
  2
BYBLOCK
 70
     0
  3

 72
    65
 73
     0
 40
0.0
  0
LTYPE
  5
13
330
5
100
AcDbSymbolTableRecord
100
AcDbLinetypeTableRecord
  2
BYLAYER
 70
     0
  3

 72
    65
 73
     0
 40
0.0
  0
LTYPE
  5
14
330
5
100
AcDbSymbolTableRecord
100
AcDbLinetypeTableRecord
  2
CONTINUOUS
 70
     0
  3
Solid line
 72
    65
 73
     0
 40
0.0
  0
LTYPE
  5
53
330
5
100
AcDbSymbolTableRecord
100
AcDbLinetypeTableRecord
  2
HIDDEN2
 70
     0
  3
Hidden (.5x) _ _ _ _ _ _ _ _ _ _ _ _ _ _ _ _ _
 72
    65
 73
     2
 40
0.1875
 49
0.125
 74
     0
 49
-0.0625
 74
     0
  0
ENDTAB
  0
TABLE
  2
LAYER
  5
2
102
{ACAD_XDICTIONARY
360
C90
102
}
330
0
100
AcDbSymbolTable
 70
    11
  0
LAYER
  5
E
330
2
100
AcDbSymbolTableRecord
100
AcDbLayerTableRecord
  2
0
 70
     0
 62
     7
  6
CONTINUOUS
1001
RAK
1000
{ACAD
1070
     0
1070
     7
1000
CONTINUOUS
1000
ACAD}
  0
LAYER
  5
26
330
2
100
AcDbSymbolTableRecord
100
AcDbLayerTableRecord
  2
DEFPOINTS
 70
     0
 62
     7
  6
CONTINUOUS
1001
RAK
1000
{ACAD
1070
     0
1070
     7
1000
CONTINUOUS
1000
ACAD}
  0
LAYER
  5
2B
330
2
100
AcDbSymbolTableRecord
100
AcDbLayerTableRecord
  2
A-NOTE
 70
     0
 62
     4
  6
CONTINUOUS
1001
RAK
1000
{ACAD
1070
     0
1070
     4
1000
CONTINUOUS
1000
ACAD}
  0
LAYER
  5
39
330
2
100
AcDbSymbolTableRecord
100
AcDbLayerTableRecord
  2
A-TITLE
 70
     0
 62
     1
  6
CONTINUOUS
1001
RAK
1000
{ACAD
1070
     0
1070
     1
1000
CONTINUOUS
1000
ACAD}
  0
LAYER
  5
A21
330
2
100
AcDbSymbolTableRecord
100
AcDbLayerTableRecord
  2
A-HATCH
 70
     0
 62
     3
  6
CONTINUOUS
  0
LAYER
  5
24B6
330
2
100
AcDbSymbolTableRecord
100
AcDbLayerTableRecord
  2
A1
 70
     0
 62
     1
  6
CONTINUOUS
  0
LAYER
  5
2B9C
330
2
100
AcDbSymbolTableRecord
100
AcDbLayerTableRecord
  2
A-BRICK
 70
     0
 62
     7
  6
CONTINUOUS
1001
ACAECLAYERSTANDARD
1000

1000

  0
LAYER
  5
2C64
330
2
100
AcDbSymbolTableRecord
100
AcDbLayerTableRecord
  2
A-MORTAR
 70
     0
 62
     2
  6
CONTINUOUS
1001
ACAECLAYERSTANDARD
1000

1000

  0
LAYER
  5
36CD
330
2
100
AcDbSymbolTableRecord
100
AcDbLayerTableRecord
  2
A-GRADE
 70
     0
 62
     7
  6
CONTINUOUS
1001
ACAECLAYERSTANDARD
1000

1000

  0
LAYER
  5
3EB9
330
2
100
AcDbSymbolTableRecord
100
AcDbLayerTableRecord
  2
A-MTL_GRID
 70
     0
 62
     7
  6
CONTINUOUS
1001
ACAECLAYERSTANDARD
1000

1000

  0
LAYER
  5
3EBA
330
2
100
AcDbSymbolTableRecord
100
AcDbLayerTableRecord
  2
A-BACKING
 70
     0
 62
     3
  6
CONTINUOUS
1001
ACAECLAYERSTANDARD
1000

1000

  0
ENDTAB
  0
TABLE
  2
STYLE
  5
3
330
0
100
AcDbSymbolTable
 70
     4
  0
STYLE
  5
F
330
3
100
AcDbSymbolTableRecord
100
AcDbTextStyleTableRecord
  2
STANDARD
 70
     0
 40
0.0
 41
1.0
 50
0.0
 71
     0
 42
0.2
  3
romans.shx
  4

  0
STYLE
  5
5E
330
3
100
AcDbSymbolTableRecord
100
AcDbTextStyleTableRecord
  2
ROMANS
 70
     0
 40
0.0
 41
0.8
 50
0.0
 71
     0
 42
4.5
  3
romans.shx
  4

  0
STYLE
  5
24BC
330
3
100
AcDbSymbolTableRecord
100
AcDbTextStyleTableRecord
  2
A
 70
     0
 40
0.0
 41
0.8
 50
0.0
 71
     0
 42
0.25
  3
ARIAL.TTF
  4

1001
ACAD
1000
Arial
1071
       34
  0
STYLE
  5
24BE
330
3
100
AcDbSymbolTableRecord
100
AcDbTextStyleTableRecord
  2
ROMANT
 70
     0
 40
0.0
 41
1.0
 50
0.0
 71
     0
 42
0.09375
  3
ROMANT.SHX
  4

  0
ENDTAB
  0
TABLE
  2
VIEW
  5
6
330
0
100
AcDbSymbolTable
 70
     0
  0
ENDTAB
  0
TABLE
  2
UCS
  5
7
330
0
100
AcDbSymbolTable
 70
     0
  0
ENDTAB
  0
TABLE
  2
APPID
  5
9
330
0
100
AcDbSymbolTable
 70
    14
  0
APPID
  5
10
330
9
100
AcDbSymbolTableRecord
100
AcDbRegAppTableRecord
  2
ACAD
 70
     0
  0
APPID
  5
20
330
9
100
AcDbSymbolTableRecord
100
AcDbRegAppTableRecord
  2
RAK
 70
     0
  0
APPID
  5
63
330
9
100
AcDbSymbolTableRecord
100
AcDbRegAppTableRecord
  2
_KTI_ARCHT
 70
     0
  0
APPID
  5
15A
330
9
100
AcDbSymbolTableRecord
100
AcDbRegAppTableRecord
  2
ABNSLEADERTOOLS
 70
     0
  0
APPID
  5
2090
330
9
100
AcDbSymbolTableRecord
100
AcDbRegAppTableRecord
  2
ACAD_MLEADERVER
 70
     0
  0
APPID
  5
2287
330
9
100
AcDbSymbolTableRecord
100
AcDbRegAppTableRecord
  2
ACAD_EXEMPT_FROM_CAD_STAND
 70
     0
  0
APPID
  5
26FE
330
9
100
AcDbSymbolTableRecord
100
AcDbRegAppTableRecord
  2
ACAD_PSEXT
 70
     0
  0
APPID
  5
2AAF
330
9
100
AcDbSymbolTableRecord
100
AcDbRegAppTableRecord
  2
ACAECLAYERSTANDARD
 70
     0
  0
APPID
  5
2AB0
330
9
100
AcDbSymbolTableRecord
100
AcDbRegAppTableRecord
  2
ACDBDYNAMICBLOCKTRUENAME
 70
     0
  0
APPID
  5
2AB1
330
9
100
AcDbSymbolTableRecord
100
AcDbRegAppTableRecord
  2
ACDBBLOCKREPETAG
 70
     0
  0
APPID
  5
2BB3
330
9
100
AcDbSymbolTableRecord
100
AcDbRegAppTableRecord
  2
ACAD_DSTYLE_DIMJAG
 70
     0
  0
APPID
  5
2BB4
330
9
100
AcDbSymbolTableRecord
100
AcDbRegAppTableRecord
  2
ACAD_DSTYLE_DIMBREAK
 70
     0
  0
APPID
  5
2BB5
330
9
100
AcDbSymbolTableRecord
100
AcDbRegAppTableRecord
  2
ACAD_DSTYLE_DIMTALN
 70
     0
  0
APPID
  5
3EBB
330
9
100
AcDbSymbolTableRecord
100
AcDbRegAppTableRecord
  2
ACLAYERTOOLS
 70
     0
  0
ENDTAB
  0
TABLE
  2
DIMSTYLE
  5
A
330
0
100
AcDbSymbolTable
 70
     3
  0
DIMSTYLE
105
1D
330
A
100
AcDbSymbolTableRecord
100
AcDbDimStyleTableRecord
  2
STANDARD
 70
     0
  3

  4

  5

  6

  7

 40
1.0
 41
0.18
 42
0.0625
 43
0.38
 44
0.18
 45
0.0
 46
0.0
 47
0.0
 48
0.0
140
0.18
141
0.09
142
0.0
143
25.4
144
1.0
145
0.0
146
1.0
147
0.09
 71
     0
 72
     0
 73
     1
 74
     1
 75
     0
 76
     0
 77
     0
 78
     0
170
     0
171
     2
172
     0
173
     0
174
     0
175
     0
176
     0
177
     0
178
     0
270
     2
271
     4
272
     4
273
     2
274
     2
340
F
275
     0
280
     0
281
     0
282
     0
283
     1
284
     0
285
     0
286
     0
287
     3
288
     0
  0
DIMSTYLE
105
2BB6
102
{ACAD_REACTORS
330
434F
330
4350
330
4351
330
4352
330
4353
330
43A6
330
43A7
330
43AA
330
43B8
330
43B9
330
43BA
330
43C6
102
}
330
A
100
AcDbSymbolTableRecord
100
AcDbDimStyleTableRecord
  2
DIM-1
 70
     0
  3

  4

  5

  6
ARCHTICK
  7
ARCHTICK
 40
2.0
 41
0.125
 42
0.0625
 43
0.0625
 44
0.0625
 45
0.0
 46
0.0625
 47
0.0
 48
0.0
140
0.09375
141
0.0625
142
0.0
143
25.4
144
1.0
145
0.0
146
1.0
147
0.0625
 71
     0
 72
     0
 73
     0
 74
     0
 75
     0
 76
     0
 77
     1
 78
     3
170
     0
171
     2
172
     0
173
     1
174
     0
175
     0
176
     0
177
     0
178
     0
270
     4
271
     4
272
     4
273
     2
274
     2
340
5E
275
     0
280
     0
281
     0
282
     0
283
     1
284
     0
285
     0
286
     0
287
     5
288
     0
1001
ACAD_DSTYLE_DIMBREAK
1070
   391
1040
0.125
1001
ACAD_DSTYLE_DIMJAG
1070
   388
1040
1.5
1001
ACAD_DSTYLE_DIMTALN
1070
   392
1070
     0
  0
DIMSTYLE
105
4586
102
{ACAD_REACTORS
330
4861
330
494E
102
}
330
A
100
AcDbSymbolTableRecord
100
AcDbDimStyleTableRecord
  2
DIM-2
 70
     0
  3

  4

  5

  6
ARCHTICK
  7
ARCHTICK
 40
2.6
 41
0.125
 42
0.0625
 43
0.0625
 44
0.0625
 45
0.0
 46
0.0625
 47
0.0
 48
0.0
140
0.09375
141
0.0625
142
0.0
143
25.4
144
1.0
145
0.0
146
1.0
147
0.0625
 71
     0
 72
     0
 73
     0
 74
     0
 75
     0
 76
     0
 77
     1
 78
     3
170
     0
171
     2
172
     0
173
     1
174
     0
175
     0
176
     0
177
     0
178
     0
270
     4
271
     4
272
     4
273
     2
274
     2
340
5E
275
     0
280
     0
281
     0
282
     0
283
     1
284
     0
285
     0
286
     0
287
     5
288
     0
1001
ACAD_DSTYLE_DIMBREAK
1070
   391
1040
0.125
1001
ACAD_DSTYLE_DIMJAG
1070
   388
1040
1.5
1001
ACAD_DSTYLE_DIMTALN
1070
   392
1070
     0
  0
ENDTAB
  0
TABLE
  2
BLOCK_RECORD
  5
1
330
0
100
AcDbSymbolTable
 70
     3
  0
BLOCK_RECORD
  5
18
102
{ACAD_XDICTIONARY
360
2283
102
}
330
1
100
AcDbSymbolTableRecord
100
AcDbBlockTableRecord
  2
*MODEL_SPACE
  0
BLOCK_RECORD
  5
15
102
{ACAD_XDICTIONARY
360
378F
102
}
330
1
100
AcDbSymbolTableRecord
100
AcDbBlockTableRecord
  2
*PAPER_SPACE
  0
BLOCK_RECORD
  5
55
330
1
100
AcDbSymbolTableRecord
100
AcDbBlockTableRecord
  2
_ARCHTICK
  0
BLOCK_RECORD
  5
4862
330
1
100
AcDbSymbolTableRecord
100
AcDbBlockTableRecord
  2
*D1
  0
BLOCK_RECORD
  5
494F
330
1
100
AcDbSymbolTableRecord
100
AcDbBlockTableRecord
  2
*D2
  0
ENDTAB
  0
ENDSEC
  0
SECTION
  2
BLOCKS
  0
BLOCK
  5
19
330
18
100
AcDbEntity
  8
0
100
AcDbBlockBegin
  2
*MODEL_SPACE
 70
     0
 10
0.0
 20
0.0
 30
0.0
  3
*MODEL_SPACE
  1

  0
ENDBLK
  5
1A
330
18
100
AcDbEntity
  8
0
100
AcDbBlockEnd
  0
BLOCK
  5
16
330
15
100
AcDbEntity
 67
     1
  8
0
100
AcDbBlockBegin
  2
*PAPER_SPACE
 70
     0
 10
0.0
 20
0.0
 30
0.0
  3
*PAPER_SPACE
  1

  0
ENDBLK
  5
17
330
15
100
AcDbEntity
 67
     1
  8
0
100
AcDbBlockEnd
  0
BLOCK
  5
56
330
55
100
AcDbEntity
  8
0
100
AcDbBlockBegin
  2
_ARCHTICK
 70
     0
 10
0.0
 20
0.0
 30
0.0
  3
_ARCHTICK
  1

  0
LWPOLYLINE
  5
57
330
55
100
AcDbEntity
  8
0
  6
BYBLOCK
 62
     0
100
AcDbPolyline
 90
        2
 70
     0
 43
0.15
 10
-0.5
 20
-0.5
 10
0.5
 20
0.5
  0
ENDBLK
  5
5B
330
55
100
AcDbEntity
  8
0
100
AcDbBlockEnd
  0
BLOCK
  5
4863
330
4862
100
AcDbEntity
  8
0
100
AcDbBlockBegin
  2
*D1
 70
     1
 10
0.0
 20
0.0
 30
0.0
  3
*D1
  1

  0
LINE
  5
4A1D
330
4862
100
AcDbEntity
  8
A-NOTE
 62
     0
100
AcDbLine
 10
1565.584329729652
 20
1025.977853166528
 30
0.0
 11
1566.058405700051
 21
1025.977853166528
 31
0.0
  0
LINE
  5
4A1E
330
4862
100
AcDbEntity
  8
A-NOTE
 62
     0
100
AcDbLine
 10
1565.448745692035
 20
1025.477853166528
 30
0.0
 11
1566.058405700051
 21
1025.477853166528
 31
0.0
  0
LINE
  5
4A1F
330
4862
100
AcDbEntity
  8
A-NOTE
 62
     0
100
AcDbLine
 10
1565.895905700051
 20
1026.140353166528
 30
0.0
 11
1565.895905700051
 21
1025.315353166528
 31
0.0
  0
MTEXT
  5
4A20
330
4862
100
AcDbEntity
  8
A-NOTE
 62
     0
100
AcDbMText
 10
1566.401892463955
 20
1024.775196431401
 30
0.0
 40
0.24375
 41
0.0
 71
     5
 72
     1
  1
\A1;{\H1.000000x;\S1/2;}" OVERLAP
  7
ROMANS
 11
6.123233995736766E-17
 21
1.0
 31
0.0
  0
INSERT
  5
4A21
330
4862
100
AcDbEntity
  8
A-NOTE
 62
     0
100
AcDbBlockReference
  2
_ARCHTICK
 10
1565.895905700051
 20
1025.977853166528
 30
0.0
 41
0.325
 42
0.325
 43
0.325
 50
90.0
  0
INSERT
  5
4A22
330
4862
100
AcDbEntity
  8
A-NOTE
 62
     0
100
AcDbBlockReference
  2
_ARCHTICK
 10
1565.895905700051
 20
1025.477853166528
 30
0.0
 41
0.325
 42
0.325
 43
0.325
 50
270.0
  0
POINT
  5
4A23
330
4862
100
AcDbEntity
  8
DEFPOINTS
 62
     0
100
AcDbPoint
 10
1565.421829729652
 20
1025.977853166528
 30
0.0
  0
POINT
  5
4A24
330
4862
100
AcDbEntity
  8
DEFPOINTS
 62
     0
100
AcDbPoint
 10
1565.286245692035
 20
1025.477853166528
 30
0.0
  0
POINT
  5
4A25
330
4862
100
AcDbEntity
  8
DEFPOINTS
 62
     0
100
AcDbPoint
 10
1565.895905700051
 20
1025.477853166528
 30
0.0
  0
ENDBLK
  5
4864
330
4862
100
AcDbEntity
  8
0
100
AcDbBlockEnd
  0
BLOCK
  5
4950
330
494F
100
AcDbEntity
  8
0
100
AcDbBlockBegin
  2
*D2
 70
     1
 10
0.0
 20
0.0
 30
0.0
  3
*D2
  1

  0
LINE
  5
4A26
330
494F
100
AcDbEntity
  8
A-NOTE
 62
     0
100
AcDbLine
 10
1565.584329729652
 20
1025.977853166528
 30
0.0
 11
1566.058405700051
 21
1025.977853166528
 31
0.0
  0
LINE
  5
4A27
330
494F
100
AcDbEntity
  8
A-NOTE
 62
     0
100
AcDbLine
 10
1565.448745692035
 20
1028.477853166528
 30
0.0
 11
1566.058405700051
 21
1028.477853166528
 31
0.0
  0
LINE
  5
4A28
330
494F
100
AcDbEntity
  8
A-NOTE
 62
     0
100
AcDbLine
 10
1565.895905700051
 20
1025.815353166528
 30
0.0
 11
1565.895905700051
 21
1028.640353166528
 31
0.0
  0
MTEXT
  5
4A29
330
494F
100
AcDbEntity
  8
A-NOTE
 62
     0
100
AcDbMText
 10
1566.401892463955
 20
1027.745833878598
 30
0.0
 40
0.24375
 41
0.0
 71
     5
 72
     1
  1
\A1;2{\H1.000000x;\S1/2;}" MIN OVERLAP
  7
ROMANS
 11
6.123233995736766E-17
 21
1.0
 31
0.0
  0
INSERT
  5
4A2A
330
494F
100
AcDbEntity
  8
A-NOTE
 62
     0
100
AcDbBlockReference
  2
_ARCHTICK
 10
1565.895905700051
 20
1025.977853166528
 30
0.0
 41
0.325
 42
0.325
 43
0.325
 50
270.0
  0
INSERT
  5
4A2B
330
494F
100
AcDbEntity
  8
A-NOTE
 62
     0
100
AcDbBlockReference
  2
_ARCHTICK
 10
1565.895905700051
 20
1028.477853166528
 30
0.0
 41
0.325
 42
0.325
 43
0.325
 50
90.0
  0
POINT
  5
4A2C
330
494F
100
AcDbEntity
  8
DEFPOINTS
 62
     0
100
AcDbPoint
 10
1565.421829729652
 20
1025.977853166528
 30
0.0
  0
POINT
  5
4A2D
330
494F
100
AcDbEntity
  8
DEFPOINTS
 62
     0
100
AcDbPoint
 10
1565.286245692035
 20
1028.477853166528
 30
0.0
  0
POINT
  5
4A2E
330
494F
100
AcDbEntity
  8
DEFPOINTS
 62
     0
100
AcDbPoint
 10
1565.895905700051
 20
1028.477853166528
 30
0.0
  0
ENDBLK
  5
4951
330
494F
100
AcDbEntity
  8
0
100
AcDbBlockEnd
  0
ENDSEC
  0
SECTION
  2
ENTITIES
  0
HATCH
  5
2C61
330
18
100
AcDbEntity
  8
DEFPOINTS
100
AcDbHatch
 10
0.0
 20
0.0
 30
0.0
210
0.0
220
0.0
230
1.0
  2
AR-SAND
 70
     0
 71
     0
 91
        1
 92
        1
 93
        6
 72
     1
 10
1557.337172703204
 20
1005.116402334205
 11
1557.337172703203
 21
1004.585152334205
 72
     1
 10
1557.337172703203
 20
1004.585152334205
 11
1556.829031629864
 21
1004.585152334205
 72
     2
 10
1556.19066763916
 20
1004.897652334205
 40
0.7107494879545938
 50
333.9167438996858
 51
386.0832561004044
 73
     1
 72
     1
 10
1556.829031629864
 20
1005.210152334205
 11
1557.149672703205
 21
1005.210152334205
 72
     2
 10
1557.153578953204
 20
1005.163277334205
 40
0.0470374788234641
 50
94.76364168988665
 51
265.2363583087218
 73
     1
 72
     1
 10
1557.149672703204
 20
1005.116402334205
 11
1557.337172703204
 21
1005.116402334205
 97
        0
 75
     0
 76
     1
 52
0.0
 41
1.0
 77
     0
 78
     4
 53
37.5
 43
1556.829031629864
 44
1004.585152334205
 45
-0.0629933581096082
 46
1.926823769013159
 79
     6
 49
0.0
 49
-1.52
 49
0.0
 49
-1.7
 49
0.0
 49
-1.625
 53
7.499999999999999
 43
1556.829031629864
 44
1004.585152334205
 45
1.769776705267727
 46
2.82214606522974
 79
     6
 49
0.0
 49
-0.82
 49
0.0
 49
-1.37
 49
0.0
 49
-0.525
 53
327.5
 43
1555.599031629864
 44
1004.585152334205
 45
3.114141861751495
 46
0.0056590535369645
 79
     6
 49
0.0
 49
-0.5
 49
0.0
 49
-1.8
 49
0.0
 49
-2.35
 53
317.5
 43
1555.599031629864
 44
1004.585152334205
 45
3.006126604572293
 46
0.8776755649342491
 79
     6
 49
0.0
 49
-0.25
 49
0.0
 49
-1.18
 49
0.0
 49
-1.35
 98
        1
 10
0.0
 20
0.0
1001
ACAD
1010
1556.829031629864
1020
1004.585152334205
1030
0.0
  0
HATCH
  5
42D9
330
18
100
AcDbEntity
  8
A-HATCH
100
AcDbHatch
 10
0.0
 20
0.0
 30
0.0
210
0.0
220
0.0
230
1.0
  2
ANSI31
 70
     0
 71
     1
 91
        1
 92
        1
 93
        4
 72
     1
 10
1535.997649837026
 20
1003.990271048571
 11
1535.997649837026
 21
1001.740271048571
 72
     1
 10
1535.997649837026
 20
1001.740271048571
 11
1536.497649837026
 21
1001.740271048571
 72
     1
 10
1536.497649837026
 20
1001.740271048571
 11
1536.497649837026
 21
1003.990271048571
 72
     1
 10
1536.497649837026
 20
1003.990271048571
 11
1535.997649837026
 21
1003.990271048571
 97
        1
330
42DA
 75
     0
 76
     1
 52
0.0
 41
2.0
 77
     0
 78
     1
 53
45.0
 43
1534.380248017302
 44
1000.141369076456
 45
-0.1767766952966369
 46
0.1767766952966369
 79
     0
 98
        1
 10
-25.5577263482719
 20
1.004020686480544
1001
ACAD
1010
1561.555376185298
1020
1000.73625036209
1030
0.0
  0
LWPOLYLINE
  5
42DA
102
{ACAD_REACTORS
330
42D9
102
}
330
18
100
AcDbEntity
  8
A-BRICK
100
AcDbPolyline
 90
        5
 70
     0
 43
0.0
 10
1535.997649837026
 20
1003.990271048571
 10
1535.997649837026
 20
1001.740271048571
 10
1536.497649837026
 20
1001.740271048571
 10
1536.497649837026
 20
1003.990271048571
 10
1535.997649837026
 20
1003.990271048571
  0
LINE
  5
42DB
330
18
100
AcDbEntity
  8
A-MTL_GRID
100
AcDbLine
 10
1536.322197160365
 20
1010.318396048571
 30
0.0
 11
1536.505790910365
 21
1010.318396048571
 31
0.0
  0
LINE
  5
42DC
330
18
100
AcDbEntity
  8
A-MTL_GRID
100
AcDbLine
 10
1536.505790910365
 20
1010.318396048571
 30
0.0
 11
1536.505790910365
 21
1010.141232278254
 31
0.0
  0
LINE
  5
42DD
330
18
100
AcDbEntity
  8
A-MTL_GRID
100
AcDbLine
 10
1536.505790910365
 20
1010.00589604857
 30
0.0
 11
1536.505790910365
 21
1009.505896048571
 31
0.0
  0
LINE
  5
42DE
330
18
100
AcDbEntity
  8
A-MTL_GRID
100
AcDbLine
 10
1536.505790910365
 20
1009.130896048571
 30
0.0
 11
1536.505790910365
 21
1007.490271048571
 31
0.0
  0
LINE
  5
42DF
330
18
100
AcDbEntity
  8
A-MTL_GRID
100
AcDbLine
 10
1536.505790910365
 20
1007.490271048571
 30
0.0
 11
1536.318290910365
 21
1007.490271048571
 31
0.0
  0
ARC
  5
42E0
330
18
100
AcDbEntity
  8
A-MTL_GRID
100
AcDbCircle
 10
1536.322197160365
 20
1007.443396048571
 30
0.0
 40
0.0470374788234074
100
AcDbArc
 50
94.76364169072623
 51
265.2363583092738
  0
LINE
  5
42E1
330
18
100
AcDbEntity
  8
A-MTL_GRID
100
AcDbLine
 10
1536.318290910365
 20
1007.396521048571
 30
0.0
 11
1536.505790910365
 21
1007.39652104857
 31
0.0
  0
LINE
  5
42E2
330
18
100
AcDbEntity
  8
A-MTL_GRID
100
AcDbLine
 10
1536.505790910365
 20
1007.39652104857
 30
0.0
 11
1536.505790910365
 21
1007.266232278253
 31
0.0
  0
LINE
  5
42E3
330
18
100
AcDbEntity
  8
A-MTL_GRID
100
AcDbLine
 10
1536.505790910365
 20
1007.13089604857
 30
0.0
 11
1536.505790910365
 21
1006.630896048571
 31
0.0
  0
LINE
  5
42E4
330
18
100
AcDbEntity
  8
A-MTL_GRID
100
AcDbLine
 10
1536.505790910365
 20
1006.255896048571
 30
0.0
 11
1536.505790910365
 21
1004.615271048571
 31
0.0
  0
LINE
  5
42E5
330
18
100
AcDbEntity
  8
A-MTL_GRID
100
AcDbLine
 10
1536.505790910365
 20
1004.615271048571
 30
0.0
 11
1536.318290910365
 21
1004.615271048571
 31
0.0
  0
ARC
  5
42E6
330
18
100
AcDbEntity
  8
A-MTL_GRID
100
AcDbCircle
 10
1536.322197160365
 20
1004.568396048571
 30
0.0
 40
0.0470374788234074
100
AcDbArc
 50
94.76364169072623
 51
265.2363583092738
  0
LINE
  5
42E7
330
18
100
AcDbEntity
  8
A-MTL_GRID
100
AcDbLine
 10
1536.318290910365
 20
1004.521521048571
 30
0.0
 11
1536.505790910365
 21
1004.521521048571
 31
0.0
  0
LINE
  5
42E8
330
18
100
AcDbEntity
  8
A-MTL_GRID
100
AcDbLine
 10
1536.505790910365
 20
1004.521521048571
 30
0.0
 11
1536.505790910365
 21
1004.391232278253
 31
0.0
  0
LINE
  5
42E9
330
18
100
AcDbEntity
  8
A-MTL_GRID
100
AcDbLine
 10
1536.505790910365
 20
1004.25589604857
 30
0.0
 11
1536.505790910365
 21
1003.755896048571
 31
0.0
  0
LWPOLYLINE
  5
42EA
330
18
100
AcDbEntity
  8
A-MTL_GRID
100
AcDbPolyline
 90
        5
 70
     0
 43
0.0
 10
1536.505790910365
 20
1003.380896048571
 10
1536.505790910365
 20
1001.740271048571
 10
1536.318290910365
 20
1001.740271048571
 42
0.9201328815660246
 10
1536.318290910365
 20
1001.646521048571
 10
1536.462743796778
 20
1001.646521048571
  0
HATCH
  5
42EB
330
18
100
AcDbEntity
  8
A-HATCH
100
AcDbHatch
 10
0.0
 20
0.0
 30
0.0
210
0.0
220
0.0
230
1.0
  2
ANSI31
 70
     0
 71
     1
 91
        1
 92
        1
 93
        4
 72
     1
 10
1535.997649837026
 20
1006.865271048571
 11
1535.997649837026
 21
1004.615271048571
 72
     1
 10
1535.997649837026
 20
1004.615271048571
 11
1536.497649837026
 21
1004.615271048571
 72
     1
 10
1536.497649837026
 20
1004.615271048571
 11
1536.497649837026
 21
1006.865271048571
 72
     1
 10
1536.497649837026
 20
1006.865271048571
 11
1535.997649837026
 21
1006.865271048571
 97
        1
330
42EC
 75
     0
 76
     1
 52
0.0
 41
2.0
 77
     0
 78
     1
 53
45.0
 43
1534.380248017302
 44
1000.141369076456
 45
-0.1767766952966369
 46
0.1767766952966369
 79
     0
 98
        1
 10
-25.5577263482719
 20
3.87902068648043
1001
ACAD
1010
1561.555376185298
1020
1000.73625036209
1030
0.0
  0
LWPOLYLINE
  5
42EC
102
{ACAD_REACTORS
330
42EB
102
}
330
18
100
AcDbEntity
  8
A-BRICK
100
AcDbPolyline
 90
        5
 70
     0
 43
0.0
 10
1535.997649837026
 20
1006.865271048571
 10
1535.997649837026
 20
1004.615271048571
 10
1536.497649837026
 20
1004.615271048571
 10
1536.497649837026
 20
1006.865271048571
 10
1535.997649837026
 20
1006.865271048571
  0
HATCH
  5
42ED
330
18
100
AcDbEntity
  8
A-HATCH
100
AcDbHatch
 10
0.0
 20
0.0
 30
0.0
210
0.0
220
0.0
230
1.0
  2
ANSI31
 70
     0
 71
     1
 91
        1
 92
        1
 93
        4
 72
     1
 10
1535.997649837024
 20
1009.740271048571
 11
1535.997649837024
 21
1007.490271048571
 72
     1
 10
1535.997649837024
 20
1007.490271048571
 11
1536.497649837024
 21
1007.490271048571
 72
     1
 10
1536.497649837024
 20
1007.490271048571
 11
1536.497649837024
 21
1009.740271048571
 72
     1
 10
1536.497649837024
 20
1009.740271048571
 11
1535.997649837024
 21
1009.740271048571
 97
        1
330
42EE
 75
     0
 76
     1
 52
0.0
 41
2.0
 77
     0
 78
     1
 53
45.0
 43
1534.380248017302
 44
1000.141369076456
 45
-0.1767766952966369
 46
0.1767766952966369
 79
     0
 98
        1
 10
-25.55772634827372
 20
6.754020686480771
1001
ACAD
1010
1561.555376185298
1020
1000.73625036209
1030
0.0
  0
LWPOLYLINE
  5
42EE
102
{ACAD_REACTORS
330
42ED
102
}
330
18
100
AcDbEntity
  8
A-BRICK
100
AcDbPolyline
 90
        5
 70
     0
 43
0.0
 10
1535.997649837024
 20
1009.740271048571
 10
1535.997649837024
 20
1007.490271048571
 10
1536.497649837024
 20
1007.490271048571
 10
1536.497649837024
 20
1009.740271048571
 10
1535.997649837024
 20
1009.740271048571
  0
LINE
  5
42EF
330
18
100
AcDbEntity
  8
A-NOTE
100
AcDbLine
 10
1535.847801554263
 20
1011.236397955226
 30
0.0
 11
1537.611438337317
 21
1011.236397955226
 31
0.0
  0
LINE
  5
42F0
330
18
100
AcDbEntity
  8
A-NOTE
100
AcDbLine
 10
1537.938686757169
 20
1011.236397955226
 30
0.0
 11
1539.16370384867
 21
1011.236397955226
 31
0.0
  0
LINE
  5
42F1
330
18
100
AcDbEntity
  8
A-NOTE
100
AcDbLine
 10
1537.611438337317
 20
1011.236397955226
 30
0.0
 11
1537.611438337317
 21
1011.150417718511
 31
0.0
  0
ARC
  5
42F2
330
18
100
AcDbEntity
  8
A-NOTE
100
AcDbCircle
 10
1537.661438337317
 20
1011.150417718511
 30
0.0
 40
0.05
100
AcDbArc
 50
180.0
 51
327.6577113480578
  0
LINE
  5
42F3
330
18
100
AcDbEntity
  8
A-NOTE
100
AcDbLine
 10
1537.70368169783
 20
1011.123668914939
 30
0.0
 11
1537.846443396655
 21
1011.349126995512
 31
0.0
  0
ARC
  5
42F4
330
18
100
AcDbEntity
  8
A-NOTE
100
AcDbCircle
 10
1537.888686757169
 20
1011.32237819194
 30
0.0
 40
0.05
100
AcDbArc
 50
0.0
 51
147.6577113480785
  0
LINE
  5
42F5
330
18
100
AcDbEntity
  8
A-NOTE
100
AcDbLine
 10
1537.938686757169
 20
1011.32237819194
 30
0.0
 11
1537.938686757169
 21
1011.236397955226
 31
0.0
  0
HATCH
  5
42F6
330
18
100
AcDbEntity
  8
A-MORTAR
100
AcDbHatch
 10
0.0
 20
0.0
 30
0.0
210
0.0
220
0.0
230
1.0
  2
AR-SAND
 70
     0
 71
     0
 91
        1
 92
        1
 93
        6
 72
     1
 10
1536.505790910366
 20
1004.521521048571
 11
1536.505790910365
 21
1003.990271048571
 72
     1
 10
1536.505790910365
 20
1003.990271048571
 11
1535.997649837027
 21
1003.990271048571
 72
     2
 10
1535.359285846322
 20
1004.30277104857
 40
0.7107494879545938
 50
333.9167438996858
 51
386.0832561004044
 73
     1
 72
     1
 10
1535.997649837026
 20
1004.615271048571
 11
1536.318290910367
 21
1004.615271048571
 72
     2
 10
1536.322197160366
 20
1004.568396048571
 40
0.0470374788234641
 50
94.76364168988665
 51
265.2363583087218
 73
     1
 72
     1
 10
1536.318290910366
 20
1004.521521048571
 11
1536.505790910366
 21
1004.521521048571
 97
        0
 75
     0
 76
     1
 52
0.0
 41
0.1
 77
     0
 78
     4
 53
37.5
 43
1535.997649837026
 44
1003.990271048571
 45
-0.0062993358109608
 46
0.1926823769013159
 79
     6
 49
0.0
 49
-0.152
 49
0.0
 49
-0.17
 49
0.0
 49
-0.1625
 53
7.499999999999999
 43
1535.997649837026
 44
1003.990271048571
 45
0.1769776705267727
 46
0.282214606522974
 79
     6
 49
0.0
 49
-0.082
 49
0.0
 49
-0.137
 49
0.0
 49
-0.0525
 53
327.5
 43
1535.874649837026
 44
1003.990271048571
 45
0.3114141861751495
 46
0.0005659053536964
 79
     6
 49
0.0
 49
-0.05
 49
0.0
 49
-0.18
 49
0.0
 49
-0.235
 53
317.5
 43
1535.874649837026
 44
1003.990271048571
 45
0.3006126604572293
 46
0.0877675564934249
 79
     6
 49
0.0
 49
-0.025
 49
0.0
 49
-0.118
 49
0.0
 49
-0.135
 98
        1
 10
-20.83138179283787
 20
-0.5948812856346422
1001
ACAD
1010
1556.829031629864
1020
1004.585152334205
1030
0.0
  0
LWPOLYLINE
  5
42F7
330
18
100
AcDbEntity
  8
A-MORTAR
100
AcDbPolyline
 90
        2
 70
     0
 43
0.0
 10
1535.997649837027
 20
1003.990271048571
 42
0.2316335912014004
 10
1535.997649837026
 20
1004.615271048571
  0
HATCH
  5
42F8
330
18
100
AcDbEntity
  8
A-MORTAR
100
AcDbHatch
 10
0.0
 20
0.0
 30
0.0
210
0.0
220
0.0
230
1.0
  2
AR-SAND
 70
     0
 71
     0
 91
        1
 92
        1
 93
        6
 72
     1
 10
1536.505790910366
 20
1007.396521048571
 11
1536.505790910365
 21
1006.865271048571
 72
     1
 10
1536.505790910365
 20
1006.865271048571
 11
1535.997649837027
 21
1006.865271048571
 72
     2
 10
1535.359285846322
 20
1007.177771048571
 40
0.7107494879545938
 50
333.9167438996858
 51
386.0832561004044
 73
     1
 72
     1
 10
1535.997649837026
 20
1007.490271048571
 11
1536.318290910367
 21
1007.490271048571
 72
     2
 10
1536.322197160366
 20
1007.443396048571
 40
0.0470374788234641
 50
94.76364168988665
 51
265.2363583087218
 73
     1
 72
     1
 10
1536.318290910366
 20
1007.396521048571
 11
1536.505790910366
 21
1007.396521048571
 97
        0
 75
     0
 76
     1
 52
0.0
 41
0.1
 77
     0
 78
     4
 53
37.5
 43
1535.997649837026
 44
1006.865271048571
 45
-0.0062993358109608
 46
0.1926823769013159
 79
     6
 49
0.0
 49
-0.152
 49
0.0
 49
-0.17
 49
0.0
 49
-0.1625
 53
7.499999999999999
 43
1535.997649837026
 44
1006.865271048571
 45
0.1769776705267727
 46
0.282214606522974
 79
     6
 49
0.0
 49
-0.082
 49
0.0
 49
-0.137
 49
0.0
 49
-0.0525
 53
327.5
 43
1535.874649837026
 44
1006.865271048571
 45
0.3114141861751495
 46
0.0005659053536964
 79
     6
 49
0.0
 49
-0.05
 49
0.0
 49
-0.18
 49
0.0
 49
-0.235
 53
317.5
 43
1535.874649837026
 44
1006.865271048571
 45
0.3006126604572293
 46
0.0877675564934249
 79
     6
 49
0.0
 49
-0.025
 49
0.0
 49
-0.118
 49
0.0
 49
-0.135
 98
        1
 10
-20.83138179283787
 20
2.280118714365699
1001
ACAD
1010
1556.829031629864
1020
1004.585152334205
1030
0.0
  0
LWPOLYLINE
  5
42F9
330
18
100
AcDbEntity
  8
A-MORTAR
100
AcDbPolyline
 90
        2
 70
     0
 43
0.0
 10
1535.997649837027
 20
1006.865271048571
 42
0.2316335912014004
 10
1535.997649837026
 20
1007.490271048571
  0
HATCH
  5
42FA
330
18
100
AcDbEntity
  8
A-MORTAR
100
AcDbHatch
 10
0.0
 20
0.0
 30
0.0
210
0.0
220
0.0
230
1.0
  2
AR-SAND
 70
     0
 71
     0
 91
        1
 92
        1
 93
        6
 72
     1
 10
1536.505790910366
 20
1010.271521048571
 11
1536.505790910365
 21
1009.740271048571
 72
     1
 10
1536.505790910365
 20
1009.740271048571
 11
1535.997649837027
 21
1009.740271048571
 72
     2
 10
1535.359285846322
 20
1010.05277104857
 40
0.7107494879545938
 50
333.9167438996858
 51
386.0832561004044
 73
     1
 72
     1
 10
1535.997649837026
 20
1010.365271048571
 11
1536.318290910367
 21
1010.365271048571
 72
     2
 10
1536.322197160366
 20
1010.318396048571
 40
0.0470374788234641
 50
94.76364168988665
 51
265.2363583087218
 73
     1
 72
     1
 10
1536.318290910366
 20
1010.271521048571
 11
1536.505790910366
 21
1010.271521048571
 97
        0
 75
     0
 76
     1
 52
0.0
 41
0.1
 77
     0
 78
     4
 53
37.5
 43
1535.997649837026
 44
1009.740271048571
 45
-0.0062993358109608
 46
0.1926823769013159
 79
     6
 49
0.0
 49
-0.152
 49
0.0
 49
-0.17
 49
0.0
 49
-0.1625
 53
7.499999999999999
 43
1535.997649837026
 44
1009.740271048571
 45
0.1769776705267727
 46
0.282214606522974
 79
     6
 49
0.0
 49
-0.082
 49
0.0
 49
-0.137
 49
0.0
 49
-0.0525
 53
327.5
 43
1535.874649837026
 44
1009.740271048571
 45
0.3114141861751495
 46
0.0005659053536964
 79
     6
 49
0.0
 49
-0.05
 49
0.0
 49
-0.18
 49
0.0
 49
-0.235
 53
317.5
 43
1535.874649837026
 44
1009.740271048571
 45
0.3006126604572293
 46
0.0877675564934249
 79
     6
 49
0.0
 49
-0.025
 49
0.0
 49
-0.118
 49
0.0
 49
-0.135
 98
        1
 10
-20.83138179283787
 20
5.155118714365472
1001
ACAD
1010
1556.829031629864
1020
1004.585152334205
1030
0.0
  0
LWPOLYLINE
  5
42FB
330
18
100
AcDbEntity
  8
A-MORTAR
100
AcDbPolyline
 90
        2
 70
     0
 43
0.0
 10
1535.997649837027
 20
1009.740271048571
 42
0.2316335912014004
 10
1535.997649837026
 20
1010.365271048571
  0
LINE
  5
42FC
330
18
100
AcDbEntity
  8
A-BACKING
100
AcDbLine
 10
1536.755790910365
 20
1011.236397955226
 30
0.0
 11
1536.755790910365
 21
1001.490271048571
 31
0.0
  0
LINE
  5
42FD
330
18
100
AcDbEntity
  8
A-BACKING
100
AcDbLine
 10
1536.830790910365
 20
1011.236397955226
 30
0.0
 11
1536.830790910365
 21
1001.146521048571
 31
0.0
  0
LINE
  5
42FE
330
18
100
AcDbEntity
  8
A-BACKING
100
AcDbLine
 10
1536.830790910365
 20
1001.490271048571
 30
0.0
 11
1536.755790910365
 21
1001.490271048571
 31
0.0
  0
LINE
  5
42FF
330
18
100
AcDbEntity
  8
A-BACKING
100
AcDbLine
 10
1536.755790910365
 20
1001.490271048571
 30
0.0
 11
1536.505790910365
 21
1001.490271048571
 31
0.0
  0
LINE
  5
4300
330
18
100
AcDbEntity
  8
A-BACKING
100
AcDbLine
 10
1536.505790910365
 20
1001.490271048571
 30
0.0
 11
1536.505790910365
 21
1001.740271048571
 31
0.0
  0
LINE
  5
4301
330
18
100
AcDbEntity
  8
A-BACKING
100
AcDbLine
 10
1536.765594300958
 20
1001.490271048571
 30
0.0
 11
1536.755790910365
 21
1001.500074439164
 31
0.0
1001
ACAD
1010
1563.922778005022
1020
1001.741402334205
1030
0.0
  0
LINE
  5
4302
330
18
100
AcDbEntity
  8
A-BACKING
100
AcDbLine
 10
1536.830790910365
 20
1001.60185113446
 30
0.0
 11
1536.755790910365
 21
1001.676851134461
 31
0.0
1001
ACAD
1010
1563.922778005022
1020
1001.741402334205
1030
0.0
  0
LINE
  5
4303
330
18
100
AcDbEntity
  8
A-BACKING
100
AcDbLine
 10
1536.830790910365
 20
1001.778627829757
 30
0.0
 11
1536.755790910365
 21
1001.853627829757
 31
0.0
1001
ACAD
1010
1563.922778005022
1020
1001.741402334205
1030
0.0
  0
LINE
  5
4304
330
18
100
AcDbEntity
  8
A-BACKING
100
AcDbLine
 10
1536.830790910365
 20
1001.955404525053
 30
0.0
 11
1536.755790910365
 21
1002.030404525054
 31
0.0
1001
ACAD
1010
1563.922778005022
1020
1001.741402334205
1030
0.0
  0
LINE
  5
4305
330
18
100
AcDbEntity
  8
A-BACKING
100
AcDbLine
 10
1536.830790910366
 20
1002.13218122035
 30
0.0
 11
1536.755790910365
 21
1002.20718122035
 31
0.0
1001
ACAD
1010
1563.922778005022
1020
1001.741402334205
1030
0.0
  0
LINE
  5
4306
330
18
100
AcDbEntity
  8
A-BACKING
100
AcDbLine
 10
1536.830790910366
 20
1002.308957915647
 30
0.0
 11
1536.755790910365
 21
1002.383957915647
 31
0.0
1001
ACAD
1010
1563.922778005022
1020
1001.741402334205
1030
0.0
  0
LINE
  5
4307
330
18
100
AcDbEntity
  8
A-BACKING
100
AcDbLine
 10
1536.830790910365
 20
1002.485734610943
 30
0.0
 11
1536.755790910365
 21
1002.560734610944
 31
0.0
1001
ACAD
1010
1563.922778005022
1020
1001.741402334205
1030
0.0
  0
LINE
  5
4308
330
18
100
AcDbEntity
  8
A-BACKING
100
AcDbLine
 10
1536.830790910365
 20
1002.66251130624
 30
0.0
 11
1536.755790910365
 21
1002.73751130624
 31
0.0
1001
ACAD
1010
1563.922778005022
1020
1001.741402334205
1030
0.0
  0
LINE
  5
4309
330
18
100
AcDbEntity
  8
A-BACKING
100
AcDbLine
 10
1536.830790910365
 20
1002.839288001537
 30
0.0
 11
1536.755790910365
 21
1002.914288001537
 31
0.0
1001
ACAD
1010
1563.922778005022
1020
1001.741402334205
1030
0.0
  0
LINE
  5
430A
330
18
100
AcDbEntity
  8
A-BACKING
100
AcDbLine
 10
1536.830790910365
 20
1003.016064696833
 30
0.0
 11
1536.755790910365
 21
1003.091064696834
 31
0.0
1001
ACAD
1010
1563.922778005022
1020
1001.741402334205
1030
0.0
  0
LINE
  5
430B
330
18
100
AcDbEntity
  8
A-BACKING
100
AcDbLine
 10
1536.830790910365
 20
1003.19284139213
 30
0.0
 11
1536.755790910365
 21
1003.26784139213
 31
0.0
1001
ACAD
1010
1563.922778005022
1020
1001.741402334205
1030
0.0
  0
LINE
  5
430C
330
18
100
AcDbEntity
  8
A-BACKING
100
AcDbLine
 10
1536.830790910365
 20
1003.369618087427
 30
0.0
 11
1536.755790910365
 21
1003.444618087427
 31
0.0
1001
ACAD
1010
1563.922778005022
1020
1001.741402334205
1030
0.0
  0
LINE
  5
430D
330
18
100
AcDbEntity
  8
A-BACKING
100
AcDbLine
 10
1536.830790910365
 20
1003.546394782723
 30
0.0
 11
1536.755790910365
 21
1003.621394782724
 31
0.0
1001
ACAD
1010
1563.922778005022
1020
1001.741402334205
1030
0.0
  0
LINE
  5
430E
330
18
100
AcDbEntity
  8
A-BACKING
100
AcDbLine
 10
1536.830790910365
 20
1003.72317147802
 30
0.0
 11
1536.755790910365
 21
1003.79817147802
 31
0.0
1001
ACAD
1010
1563.922778005022
1020
1001.741402334205
1030
0.0
  0
LINE
  5
430F
330
18
100
AcDbEntity
  8
A-BACKING
100
AcDbLine
 10
1536.830790910365
 20
1003.899948173317
 30
0.0
 11
1536.755790910365
 21
1003.974948173317
 31
0.0
1001
ACAD
1010
1563.922778005022
1020
1001.741402334205
1030
0.0
  0
LINE
  5
4310
330
18
100
AcDbEntity
  8
A-BACKING
100
AcDbLine
 10
1536.830790910365
 20
1004.076724868613
 30
0.0
 11
1536.755790910365
 21
1004.151724868614
 31
0.0
1001
ACAD
1010
1563.922778005022
1020
1001.741402334205
1030
0.0
  0
LINE
  5
4311
330
18
100
AcDbEntity
  8
A-BACKING
100
AcDbLine
 10
1536.830790910365
 20
1004.25350156391
 30
0.0
 11
1536.755790910365
 21
1004.32850156391
 31
0.0
1001
ACAD
1010
1563.922778005022
1020
1001.741402334205
1030
0.0
  0
LINE
  5
4312
330
18
100
AcDbEntity
  8
A-BACKING
100
AcDbLine
 10
1536.830790910365
 20
1004.430278259207
 30
0.0
 11
1536.755790910365
 21
1004.505278259207
 31
0.0
1001
ACAD
1010
1563.922778005022
1020
1001.741402334205
1030
0.0
  0
LINE
  5
4313
330
18
100
AcDbEntity
  8
A-BACKING
100
AcDbLine
 10
1536.830790910365
 20
1004.607054954503
 30
0.0
 11
1536.755790910365
 21
1004.682054954503
 31
0.0
1001
ACAD
1010
1563.922778005022
1020
1001.741402334205
1030
0.0
  0
LINE
  5
4314
330
18
100
AcDbEntity
  8
A-BACKING
100
AcDbLine
 10
1536.830790910365
 20
1004.7838316498
 30
0.0
 11
1536.755790910365
 21
1004.8588316498
 31
0.0
1001
ACAD
1010
1563.922778005022
1020
1001.741402334205
1030
0.0
  0
LINE
  5
4315
330
18
100
AcDbEntity
  8
A-BACKING
100
AcDbLine
 10
1536.830790910366
 20
1004.960608345096
 30
0.0
 11
1536.755790910365
 21
1005.035608345097
 31
0.0
1001
ACAD
1010
1563.922778005022
1020
1001.741402334205
1030
0.0
  0
LINE
  5
4316
330
18
100
AcDbEntity
  8
A-BACKING
100
AcDbLine
 10
1536.830790910365
 20
1005.137385040393
 30
0.0
 11
1536.755790910365
 21
1005.212385040393
 31
0.0
1001
ACAD
1010
1563.922778005022
1020
1001.741402334205
1030
0.0
  0
LINE
  5
4317
330
18
100
AcDbEntity
  8
A-BACKING
100
AcDbLine
 10
1536.830790910365
 20
1005.31416173569
 30
0.0
 11
1536.755790910365
 21
1005.38916173569
 31
0.0
1001
ACAD
1010
1563.922778005022
1020
1001.741402334205
1030
0.0
  0
LINE
  5
4318
330
18
100
AcDbEntity
  8
A-BACKING
100
AcDbLine
 10
1536.830790910365
 20
1005.490938430986
 30
0.0
 11
1536.755790910365
 21
1005.565938430987
 31
0.0
1001
ACAD
1010
1563.922778005022
1020
1001.741402334205
1030
0.0
  0
LINE
  5
4319
330
18
100
AcDbEntity
  8
A-BACKING
100
AcDbLine
 10
1536.830790910365
 20
1005.667715126283
 30
0.0
 11
1536.755790910365
 21
1005.742715126283
 31
0.0
1001
ACAD
1010
1563.922778005022
1020
1001.741402334205
1030
0.0
  0
LINE
  5
431A
330
18
100
AcDbEntity
  8
A-BACKING
100
AcDbLine
 10
1536.830790910365
 20
1005.84449182158
 30
0.0
 11
1536.755790910365
 21
1005.91949182158
 31
0.0
1001
ACAD
1010
1563.922778005022
1020
1001.741402334205
1030
0.0
  0
LINE
  5
431B
330
18
100
AcDbEntity
  8
A-BACKING
100
AcDbLine
 10
1536.830790910365
 20
1006.021268516876
 30
0.0
 11
1536.755790910365
 21
1006.096268516877
 31
0.0
1001
ACAD
1010
1563.922778005022
1020
1001.741402334205
1030
0.0
  0
LINE
  5
431C
330
18
100
AcDbEntity
  8
A-BACKING
100
AcDbLine
 10
1536.830790910365
 20
1006.198045212173
 30
0.0
 11
1536.755790910365
 21
1006.273045212173
 31
0.0
1001
ACAD
1010
1563.922778005022
1020
1001.741402334205
1030
0.0
  0
LINE
  5
431D
330
18
100
AcDbEntity
  8
A-BACKING
100
AcDbLine
 10
1536.830790910365
 20
1006.374821907469
 30
0.0
 11
1536.755790910365
 21
1006.44982190747
 31
0.0
1001
ACAD
1010
1563.922778005022
1020
1001.741402334205
1030
0.0
  0
LINE
  5
431E
330
18
100
AcDbEntity
  8
A-BACKING
100
AcDbLine
 10
1536.830790910365
 20
1006.551598602766
 30
0.0
 11
1536.755790910365
 21
1006.626598602766
 31
0.0
1001
ACAD
1010
1563.922778005022
1020
1001.741402334205
1030
0.0
  0
LINE
  5
431F
330
18
100
AcDbEntity
  8
A-BACKING
100
AcDbLine
 10
1536.830790910365
 20
1006.728375298063
 30
0.0
 11
1536.755790910365
 21
1006.803375298063
 31
0.0
1001
ACAD
1010
1563.922778005022
1020
1001.741402334205
1030
0.0
  0
LINE
  5
4320
330
18
100
AcDbEntity
  8
A-BACKING
100
AcDbLine
 10
1536.830790910365
 20
1006.905151993359
 30
0.0
 11
1536.755790910365
 21
1006.98015199336
 31
0.0
1001
ACAD
1010
1563.922778005022
1020
1001.741402334205
1030
0.0
  0
LINE
  5
4321
330
18
100
AcDbEntity
  8
A-BACKING
100
AcDbLine
 10
1536.830790910365
 20
1007.081928688656
 30
0.0
 11
1536.755790910365
 21
1007.156928688656
 31
0.0
1001
ACAD
1010
1563.922778005022
1020
1001.741402334205
1030
0.0
  0
LINE
  5
4322
330
18
100
AcDbEntity
  8
A-BACKING
100
AcDbLine
 10
1536.830790910365
 20
1007.258705383953
 30
0.0
 11
1536.755790910365
 21
1007.333705383953
 31
0.0
1001
ACAD
1010
1563.922778005022
1020
1001.741402334205
1030
0.0
  0
LINE
  5
4323
330
18
100
AcDbEntity
  8
A-BACKING
100
AcDbLine
 10
1536.830790910365
 20
1007.435482079249
 30
0.0
 11
1536.755790910365
 21
1007.51048207925
 31
0.0
1001
ACAD
1010
1563.922778005022
1020
1001.741402334205
1030
0.0
  0
LINE
  5
4324
330
18
100
AcDbEntity
  8
A-BACKING
100
AcDbLine
 10
1536.830790910365
 20
1007.612258774546
 30
0.0
 11
1536.755790910365
 21
1007.687258774546
 31
0.0
1001
ACAD
1010
1563.922778005022
1020
1001.741402334205
1030
0.0
  0
LINE
  5
4325
330
18
100
AcDbEntity
  8
A-BACKING
100
AcDbLine
 10
1536.830790910366
 20
1007.789035469843
 30
0.0
 11
1536.755790910365
 21
1007.864035469843
 31
0.0
1001
ACAD
1010
1563.922778005022
1020
1001.741402334205
1030
0.0
  0
LINE
  5
4326
330
18
100
AcDbEntity
  8
A-BACKING
100
AcDbLine
 10
1536.830790910365
 20
1007.965812165139
 30
0.0
 11
1536.755790910365
 21
1008.04081216514
 31
0.0
1001
ACAD
1010
1563.922778005022
1020
1001.741402334205
1030
0.0
  0
LINE
  5
4327
330
18
100
AcDbEntity
  8
A-BACKING
100
AcDbLine
 10
1536.830790910365
 20
1008.142588860436
 30
0.0
 11
1536.755790910365
 21
1008.217588860436
 31
0.0
1001
ACAD
1010
1563.922778005022
1020
1001.741402334205
1030
0.0
  0
LINE
  5
4328
330
18
100
AcDbEntity
  8
A-BACKING
100
AcDbLine
 10
1536.830790910365
 20
1008.319365555733
 30
0.0
 11
1536.755790910365
 21
1008.394365555733
 31
0.0
1001
ACAD
1010
1563.922778005022
1020
1001.741402334205
1030
0.0
  0
LINE
  5
4329
330
18
100
AcDbEntity
  8
A-BACKING
100
AcDbLine
 10
1536.830790910365
 20
1008.496142251029
 30
0.0
 11
1536.755790910365
 21
1008.571142251029
 31
0.0
1001
ACAD
1010
1563.922778005022
1020
1001.741402334205
1030
0.0
  0
LINE
  5
432A
330
18
100
AcDbEntity
  8
A-BACKING
100
AcDbLine
 10
1536.830790910365
 20
1008.672918946326
 30
0.0
 11
1536.755790910365
 21
1008.747918946326
 31
0.0
1001
ACAD
1010
1563.922778005022
1020
1001.741402334205
1030
0.0
  0
LINE
  5
432B
330
18
100
AcDbEntity
  8
A-BACKING
100
AcDbLine
 10
1536.830790910365
 20
1008.849695641622
 30
0.0
 11
1536.755790910365
 21
1008.924695641623
 31
0.0
1001
ACAD
1010
1563.922778005022
1020
1001.741402334205
1030
0.0
  0
LINE
  5
432C
330
18
100
AcDbEntity
  8
A-BACKING
100
AcDbLine
 10
1536.830790910365
 20
1009.026472336919
 30
0.0
 11
1536.755790910365
 21
1009.101472336919
 31
0.0
1001
ACAD
1010
1563.922778005022
1020
1001.741402334205
1030
0.0
  0
LINE
  5
432D
330
18
100
AcDbEntity
  8
A-BACKING
100
AcDbLine
 10
1536.830790910365
 20
1009.203249032216
 30
0.0
 11
1536.755790910365
 21
1009.278249032216
 31
0.0
1001
ACAD
1010
1563.922778005022
1020
1001.741402334205
1030
0.0
  0
LINE
  5
432E
330
18
100
AcDbEntity
  8
A-BACKING
100
AcDbLine
 10
1536.830790910365
 20
1009.380025727512
 30
0.0
 11
1536.755790910365
 21
1009.455025727513
 31
0.0
1001
ACAD
1010
1563.922778005022
1020
1001.741402334205
1030
0.0
  0
LINE
  5
432F
330
18
100
AcDbEntity
  8
A-BACKING
100
AcDbLine
 10
1536.830790910365
 20
1009.556802422809
 30
0.0
 11
1536.755790910365
 21
1009.631802422809
 31
0.0
1001
ACAD
1010
1563.922778005022
1020
1001.741402334205
1030
0.0
  0
LINE
  5
4330
330
18
100
AcDbEntity
  8
A-BACKING
100
AcDbLine
 10
1536.830790910365
 20
1009.733579118106
 30
0.0
 11
1536.755790910365
 21
1009.808579118106
 31
0.0
1001
ACAD
1010
1563.922778005022
1020
1001.741402334205
1030
0.0
  0
LINE
  5
4331
330
18
100
AcDbEntity
  8
A-BACKING
100
AcDbLine
 10
1536.830790910365
 20
1009.910355813402
 30
0.0
 11
1536.755790910365
 21
1009.985355813403
 31
0.0
1001
ACAD
1010
1563.922778005022
1020
1001.741402334205
1030
0.0
  0
LINE
  5
4332
330
18
100
AcDbEntity
  8
A-BACKING
100
AcDbLine
 10
1536.830790910365
 20
1010.087132508699
 30
0.0
 11
1536.755790910365
 21
1010.162132508699
 31
0.0
1001
ACAD
1010
1563.922778005022
1020
1001.741402334205
1030
0.0
  0
LINE
  5
4333
330
18
100
AcDbEntity
  8
A-BACKING
100
AcDbLine
 10
1536.830790910365
 20
1010.263909203996
 30
0.0
 11
1536.755790910365
 21
1010.338909203996
 31
0.0
1001
ACAD
1010
1563.922778005022
1020
1001.741402334205
1030
0.0
  0
LINE
  5
4334
330
18
100
AcDbEntity
  8
A-BACKING
100
AcDbLine
 10
1536.830790910365
 20
1010.440685899292
 30
0.0
 11
1536.755790910365
 21
1010.515685899292
 31
0.0
1001
ACAD
1010
1563.922778005022
1020
1001.741402334205
1030
0.0
  0
LINE
  5
4335
330
18
100
AcDbEntity
  8
A-BACKING
100
AcDbLine
 10
1536.830790910365
 20
1010.617462594589
 30
0.0
 11
1536.755790910365
 21
1010.692462594589
 31
0.0
1001
ACAD
1010
1563.922778005022
1020
1001.741402334205
1030
0.0
  0
LINE
  5
4336
330
18
100
AcDbEntity
  8
A-BACKING
100
AcDbLine
 10
1536.830790910365
 20
1010.794239289885
 30
0.0
 11
1536.755790910365
 21
1010.869239289886
 31
0.0
1001
ACAD
1010
1563.922778005022
1020
1001.741402334205
1030
0.0
  0
LINE
  5
4337
330
18
100
AcDbEntity
  8
A-BACKING
100
AcDbLine
 10
1536.830790910365
 20
1010.971015985182
 30
0.0
 11
1536.755790910365
 21
1011.046015985182
 31
0.0
1001
ACAD
1010
1563.922778005022
1020
1001.741402334205
1030
0.0
  0
LINE
  5
4338
330
18
100
AcDbEntity
  8
A-BACKING
100
AcDbLine
 10
1536.830790910365
 20
1011.147792680479
 30
0.0
 11
1536.755790910365
 21
1011.222792680479
 31
0.0
1001
ACAD
1010
1563.922778005022
1020
1001.741402334205
1030
0.0
  0
LINE
  5
4339
330
18
100
AcDbEntity
  8
A-BACKING
100
AcDbLine
 10
1536.830790910365
 20
1011.236397955226
 30
0.0
 11
1536.830790910365
 21
1000.907602164518
 31
0.0
  0
LINE
  5
433A
330
18
100
AcDbEntity
  8
A-BACKING
100
AcDbLine
 10
1536.856546408789
 20
1011.236397955226
 30
0.0
 11
1536.856546408789
 21
999.3368254471894
 31
0.0
  0
LINE
  5
433B
330
18
100
AcDbEntity
  8
A-BACKING
100
AcDbLine
 10
1537.231546408789
 20
1011.236397955226
 30
0.0
 11
1537.231546408789
 21
1002.865271048571
 31
0.0
  0
LINE
  5
433C
330
18
100
AcDbEntity
  8
A-GRADE
100
AcDbLine
 10
1531.2883912575
 20
999.9824439323748
 30
0.0
 11
1536.856546408789
 21
1000.240271048571
 31
0.0
  0
LINE
  5
433D
330
18
100
AcDbEntity
  8
A-HATCH
100
AcDbLine
 10
1536.856546408789
 20
1002.865271048571
 30
0.0
 11
1539.163703848669
 21
1002.865271048571
 31
0.0
  0
LINE
  5
433E
330
18
100
AcDbEntity
  8
A-NOTE
100
AcDbLine
 10
1536.981546408789
 20
1001.740271048571
 30
0.0
 11
1540.072642528555
 21
1001.740271048571
 31
0.0
  0
LINE
  5
433F
330
18
100
AcDbEntity
  8
A-NOTE
100
AcDbLine
 10
1536.981546408789
 20
1000.240271048571
 30
0.0
 11
1540.072642528555
 21
1000.240271048571
 31
0.0
  0
LINE
  5
4340
330
18
100
AcDbEntity
  8
A-NOTE
100
AcDbLine
 10
1539.947642528555
 20
1001.865271048571
 30
0.0
 11
1539.947642528555
 21
1000.115271048571
 31
0.0
  0
INSERT
  5
4341
330
18
100
AcDbEntity
  8
A-NOTE
100
AcDbBlockReference
  2
_ARCHTICK
 10
1539.947642528555
 20
1001.740271048571
 30
0.0
 41
0.1875
 42
0.1875
 43
0.1875
 50
90.0
  0
INSERT
  5
4342
330
18
100
AcDbEntity
  8
A-NOTE
100
AcDbBlockReference
  2
_ARCHTICK
 10
1539.947642528555
 20
1000.240271048571
 30
0.0
 41
0.1875
 42
0.1875
 43
0.1875
 50
270.0
  0
MTEXT
  5
4343
330
18
100
AcDbEntity
  8
A-NOTE
100
AcDbMText
 10
1539.576773805441
 20
1000.990271048571
 30
0.0
 40
0.1875
 41
0.0
 71
     5
 72
     1
  1
\A1;1{\H1.000000x;\S1/2;}" MIN.
  7
ROMANS
 11
6.123233995736766E-17
 21
1.0
 31
0.0
  0
MTEXT
  5
4344
330
18
100
AcDbEntity
  8
A-NOTE
100
AcDbMText
 10
1530.505245319303
 20
1012.595871294745
 30
0.0
 40
0.25
 41
2.547618775369983
 71
     1
 72
     5
  1
WEEP SYSTEM \P(OPTIONAL)-PVC
  7
ROMANS
  0
MTEXT
  5
4345
330
18
100
AcDbEntity
  8
A-NOTE
100
AcDbMText
 10
1537.71045067456
 20
1012.625684572465
 30
0.0
 40
0.25
 41
2.547618775369983
 71
     1
 72
     5
  1
MOISTURE BARRIER
  7
ROMANS
  0
MTEXT
  5
4346
330
18
100
AcDbEntity
  8
A-NOTE
100
AcDbMText
 10
1532.003218632032
 20
1003.638039662267
 30
0.0
 40
0.25
 41
3.81595263393865
 71
     1
 72
     5
  1
\A1;3/8" BEAD ADHESIVE \PTO PROVIDE MECHANICAL ATTACHMENT BETWEEN BRICK, GRID AND SUBSTRATE
  7
ROMANS
  0
MTEXT
  5
4347
330
18
100
AcDbEntity
  8
A-NOTE
100
AcDbMText
 10
1532.003470874457
 20
1007.171824432185
 30
0.0
 40
0.25
 41
3.229579997254859
 71
     1
 72
     5
  1
\A1;PATENTED METAL GRID PANEL
  7
ROMANS
  0
MTEXT
  5
4348
330
18
100
AcDbEntity
  8
A-NOTE
100
AcDbMText
 10
1532.016380888527
 20
1004.446786641359
 30
0.0
 40
0.25
 41
3.229579997254859
 71
     1
 72
     5
  1
\A1;BRICK-IT MORTAR
  7
ROMANS
  0
MTEXT
  5
4349
330
18
100
AcDbEntity
  8
A-NOTE
100
AcDbMText
 10
1531.99907103835
 20
1001.294986815962
 30
0.0
 40
0.25
 41
3.81595263393865
 71
     1
 72
     5
  1
\A1;MASONRY FOUNDATION
  7
ROMANS
  0
MTEXT
  5
434A
330
18
100
AcDbEntity
  8
A-NOTE
100
AcDbMText
 10
1531.995809702322
 20
1000.708533023747
 30
0.0
 40
0.25
 41
3.81595263393865
 71
     1
 72
     5
  1
\A1;FINISHED GRADE
  7
ROMANS
  0
LWPOLYLINE
  5
434B
330
18
100
AcDbEntity
  8
A-MTL_GRID
100
AcDbPolyline
 90
        4
 70
     1
 43
0.0
 10
1536.515417857918
 20
1009.505896048571
 10
1536.497649837024
 20
1009.505896048571
 10
1536.497649837024
 20
1009.130896048571
 10
1536.515417857918
 20
1009.130896048571
  0
LWPOLYLINE
  5
434C
330
18
100
AcDbEntity
  8
A-MTL_GRID
100
AcDbPolyline
 90
        4
 70
     1
 43
0.0
 10
1536.515417857918
 20
1006.630896048571
 10
1536.497649837024
 20
1006.630896048571
 10
1536.497649837024
 20
1006.255896048571
 10
1536.515417857918
 20
1006.255896048571
  0
LWPOLYLINE
  5
434D
330
18
100
AcDbEntity
  8
A-MTL_GRID
100
AcDbPolyline
 90
        4
 70
     1
 43
0.0
 10
1536.515417857918
 20
1003.755896048571
 10
1536.497649837024
 20
1003.755896048571
 10
1536.497649837024
 20
1003.380896048571
 10
1536.515417857918
 20
1003.380896048571
  0
CIRCLE
  5
434E
330
18
100
AcDbEntity
  8
A-NOTE
  6
HIDDEN2
100
AcDbCircle
 10
1536.322197160365
 20
1010.274582266146
 30
0.0
 40
0.7697738374422443
  0
LEADER
  5
434F
330
18
100
AcDbEntity
  8
A-NOTE
100
AcDbLeader
  3
DIM-1
 76
     3
 10
1535.18512689558
 20
1011.236397955226
 30
0.0
 10
1534.951954823489
 20
1012.003626403296
 30
0.0
 10
1533.038102066716
 20
1012.003626403296
 30
0.0
 77
   256
1001
ACAD
1000
DSTYLE
1002
{
1070
     6
1000

1070
    77
1070
     0
1070
   147
1040
0.0625
1070
   341
1005
0
1002
}
  0
LEADER
  5
4350
330
18
100
AcDbEntity
  8
A-NOTE
100
AcDbLeader
  3
DIM-1
 76
     3
 10
1536.817913161153
 20
1011.258702871149
 30
0.0
 10
1537.005664219372
 20
1012.048834870895
 30
0.0
 10
1537.584554970035
 20
1012.048834870895
 30
0.0
 77
   256
1001
ACAD
1000
DSTYLE
1002
{
1070
     6
1000

1070
    77
1070
     0
1070
   147
1040
0.0625
1070
   341
1005
0
1002
}
  0
LEADER
  5
4351
330
18
100
AcDbEntity
  8
A-NOTE
100
AcDbLeader
  3
DIM-1
 76
     3
 10
1536.069610532305
 20
1004.301439164309
 30
0.0
 10
1535.287691364675
 20
1004.301439164309
 30
0.0
 10
1534.805846859831
 20
1004.301439164309
 30
0.0
 77
   256
1001
ACAD
1000
DSTYLE
1002
{
1070
     6
1000

1070
    77
1070
     0
1070
   147
1040
0.0625
1070
   341
1005
0
1002
}
  0
LEADER
  5
4352
330
18
100
AcDbEntity
  8
A-NOTE
100
AcDbLeader
  3
DIM-1
 76
     3
 10
1537.253582041878
 20
1000.672892369609
 30
0.0
 10
1536.479997220046
 20
1001.188222903484
 30
0.0
 10
1535.388023664561
 20
1001.188222903484
 30
0.0
 77
   256
1001
ACAD
1000
DSTYLE
1002
{
1070
     6
1000

1070
    77
1070
     0
1070
   147
1040
0.0625
1070
   341
1005
0
1002
}
  0
LEADER
  5
4353
330
18
100
AcDbEntity
  8
A-NOTE
100
AcDbLeader
  3
DIM-1
 76
     3
 10
1535.30654352336
 20
1000.158224453229
 30
0.0
 10
1534.656210923628
 20
1000.589033551359
 30
0.0
 10
1534.494309694835
 20
1000.589033551359
 30
0.0
 77
   256
1001
ACAD
1000
DSTYLE
1002
{
1070
     6
1000

1070
    77
1070
     0
1070
   147
1040
0.0625
1070
   341
1005
0
1002
}
  0
LINE
  5
4354
330
18
100
AcDbEntity
  8
A-MTL_GRID
100
AcDbLine
 10
1529.344617688048
 20
1015.314359816747
 30
0.0
 11
1529.344617688049
 21
1013.343747885279
 31
0.0
  0
LINE
  5
4355
330
18
100
AcDbEntity
  8
A-MTL_GRID
100
AcDbLine
 10
1529.344617688049
 20
1013.343747885279
 30
0.0
 11
1528.782117688049
 21
1013.343747885279
 31
0.0
  0
ARC
  5
4356
330
18
100
AcDbEntity
  8
A-MTL_GRID
100
AcDbCircle
 10
1528.793836438049
 20
1013.203122885279
 30
0.0
 40
0.1411124364702222
100
AcDbArc
 50
94.76364169072153
 51
265.2363583092784
  0
LINE
  5
4357
330
18
100
AcDbEntity
  8
A-MTL_GRID
100
AcDbLine
 10
1528.782117688049
 20
1013.062497885279
 30
0.0
 11
1529.138009470678
 21
1013.062497885278
 31
0.0
  0
LINE
  5
4358
330
18
100
AcDbEntity
  8
A-MTL_GRID
100
AcDbLine
 10
1528.793836438049
 20
1013.203122885279
 30
0.0
 11
1529.34461768805
 21
1013.203122885279
 31
0.0
  0
LINE
  5
4359
330
18
100
AcDbEntity
  8
A-MTL_GRID
100
AcDbLine
 10
1529.34461768805
 20
1013.203122885279
 30
0.0
 11
1529.34461768805
 21
1012.610593784598
 31
0.0
  0
LINE
  5
435A
330
18
100
AcDbEntity
  8
A-MTL_GRID
100
AcDbLine
 10
1529.344617688049
 20
1012.265622885278
 30
0.0
 11
1529.344617688049
 21
1010.829003259262
 31
0.0
  0
LINE
  5
435B
330
18
100
AcDbEntity
  8
A-HATCH
100
AcDbLine
 10
1527.9026640768
 20
1010.941240816031
 30
0.0
 11
1528.430171146049
 21
1011.46874788528
 31
0.0
1001
ACAD
1010
1561.555376185298
1020
1000.73625036209
1030
0.0
  0
LINE
  5
435C
330
18
100
AcDbEntity
  8
A-HATCH
100
AcDbLine
 10
1528.784462483595
 20
1010.762379051046
 30
0.0
 11
1529.320194468026
 21
1011.298111035477
 31
0.0
1001
ACAD
1010
1561.555376185298
1020
1000.73625036209
1030
0.0
  0
LINE
  5
435D
330
18
100
AcDbEntity
  8
A-BRICK
100
AcDbLine
 10
1527.820194468026
 20
1011.46874788528
 30
0.0
 11
1527.820194468026
 21
1010.977645444356
 31
0.0
  0
LINE
  5
435E
330
18
100
AcDbEntity
  8
A-BRICK
100
AcDbLine
 10
1529.320194468026
 20
1010.82314577632
 30
0.0
 11
1529.320194468026
 21
1011.46874788528
 31
0.0
  0
LINE
  5
435F
330
18
100
AcDbEntity
  8
A-BRICK
100
AcDbLine
 10
1529.320194468026
 20
1011.46874788528
 30
0.0
 11
1527.820194468026
 21
1011.46874788528
 31
0.0
  0
LINE
  5
4360
330
18
100
AcDbEntity
  8
A-HATCH
100
AcDbLine
 10
1527.820194468025
 20
1015.101411894376
 30
0.0
 11
1527.933571814019
 21
1015.21478924037
 31
0.0
1001
ACAD
1010
1561.555376185298
1020
1000.73625036209
1030
0.0
  0
LINE
  5
4361
330
18
100
AcDbEntity
  8
A-HATCH
100
AcDbLine
 10
1527.820194468025
 20
1014.040751722596
 30
0.0
 11
1529.135092372999
 21
1015.355649627571
 31
0.0
1001
ACAD
1010
1561.555376185298
1020
1000.73625036209
1030
0.0
  0
LINE
  5
4362
330
18
100
AcDbEntity
  8
A-HATCH
100
AcDbLine
 10
1528.183850802488
 20
1013.343747885279
 30
0.0
 11
1529.320194468026
 21
1014.480091550817
 31
0.0
1001
ACAD
1010
1561.555376185298
1020
1000.73625036209
1030
0.0
  0
LINE
  5
4363
330
18
100
AcDbEntity
  8
A-HATCH
100
AcDbLine
 10
1529.244510974268
 20
1013.343747885279
 30
0.0
 11
1529.320194468026
 21
1013.419431379037
 31
0.0
1001
ACAD
1010
1561.555376185298
1020
1000.73625036209
1030
0.0
  0
LINE
  5
4364
330
18
100
AcDbEntity
  8
A-BRICK
100
AcDbLine
 10
1527.820194468025
 20
1015.165717631653
 30
0.0
 11
1527.820194468026
 21
1013.343747885279
 31
0.0
  0
LINE
  5
4365
330
18
100
AcDbEntity
  8
A-BRICK
100
AcDbLine
 10
1527.820194468026
 20
1013.343747885279
 30
0.0
 11
1529.320194468026
 21
1013.343747885279
 31
0.0
  0
LINE
  5
4366
330
18
100
AcDbEntity
  8
A-BRICK
100
AcDbLine
 10
1529.320194468026
 20
1013.343747885279
 30
0.0
 11
1529.320194468025
 21
1015.320217299689
 31
0.0
  0
LINE
  5
4367
330
18
100
AcDbEntity
  8
A-MORTAR
100
AcDbLine
 10
1528.144167576339
 20
1012.902437358316
 30
0.0
 11
1528.144167576339
 21
1012.902437358316
 31
0.0
1001
ACAD
1010
1556.829031629864
1020
1004.585152334205
1030
0.0
  0
LINE
  5
4368
330
18
100
AcDbEntity
  8
A-MORTAR
100
AcDbLine
 10
1528.548777779888
 20
1013.21290568711
 30
0.0
 11
1528.548777779888
 21
1013.21290568711
 31
0.0
1001
ACAD
1010
1556.829031629864
1020
1004.585152334205
1030
0.0
  0
LINE
  5
4369
330
18
100
AcDbEntity
  8
A-MORTAR
100
AcDbLine
 10
1528.163065583771
 20
1012.324390227611
 30
0.0
 11
1528.163065583771
 21
1012.324390227611
 31
0.0
1001
ACAD
1010
1556.829031629864
1020
1004.585152334205
1030
0.0
  0
LINE
  5
436A
330
18
100
AcDbEntity
  8
A-MORTAR
100
AcDbLine
 10
1528.56767578732
 20
1012.634858556406
 30
0.0
 11
1528.56767578732
 21
1012.634858556406
 31
0.0
1001
ACAD
1010
1556.829031629864
1020
1004.585152334205
1030
0.0
  0
LINE
  5
436B
330
18
100
AcDbEntity
  8
A-MORTAR
100
AcDbLine
 10
1528.954435540712
 20
1012.931629753048
 30
0.0
 11
1528.954435540712
 21
1012.931629753048
 31
0.0
1001
ACAD
1010
1556.829031629864
1020
1004.585152334205
1030
0.0
  0
LINE
  5
436C
330
18
100
AcDbEntity
  8
A-MORTAR
100
AcDbLine
 10
1528.181963591204
 20
1011.746343096907
 30
0.0
 11
1528.181963591204
 21
1011.746343096907
 31
0.0
1001
ACAD
1010
1556.829031629864
1020
1004.585152334205
1030
0.0
  0
LINE
  5
436D
330
18
100
AcDbEntity
  8
A-MORTAR
100
AcDbLine
 10
1528.586573794752
 20
1012.056811425701
 30
0.0
 11
1528.586573794752
 21
1012.056811425701
 31
0.0
1001
ACAD
1010
1556.829031629864
1020
1004.585152334205
1030
0.0
  0
LINE
  5
436E
330
18
100
AcDbEntity
  8
A-MORTAR
100
AcDbLine
 10
1528.973333548144
 20
1012.353582622343
 30
0.0
 11
1528.973333548144
 21
1012.353582622343
 31
0.0
1001
ACAD
1010
1556.829031629864
1020
1004.585152334205
1030
0.0
  0
LINE
  5
436F
330
18
100
AcDbEntity
  8
A-MORTAR
100
AcDbLine
 10
1529.335102671317
 20
1012.631177833971
 30
0.0
 11
1529.335102671317
 21
1012.631177833971
 31
0.0
1001
ACAD
1010
1556.829031629864
1020
1004.585152334205
1030
0.0
  0
LINE
  5
4370
330
18
100
AcDbEntity
  8
A-MORTAR
100
AcDbLine
 10
1528.605471802186
 20
1011.478764294997
 30
0.0
 11
1528.605471802186
 21
1011.478764294997
 31
0.0
1001
ACAD
1010
1556.829031629864
1020
1004.585152334205
1030
0.0
  0
LINE
  5
4371
330
18
100
AcDbEntity
  8
A-MORTAR
100
AcDbLine
 10
1528.992231555577
 20
1011.775535491639
 30
0.0
 11
1528.992231555577
 21
1011.775535491639
 31
0.0
1001
ACAD
1010
1556.829031629864
1020
1004.585152334205
1030
0.0
  0
LINE
  5
4372
330
18
100
AcDbEntity
  8
A-MORTAR
100
AcDbLine
 10
1528.074528651603
 20
1013.055721940853
 30
0.0
 11
1528.074528651603
 21
1013.055721940853
 31
0.0
1001
ACAD
1010
1556.829031629864
1020
1004.585152334205
1030
0.0
  0
LINE
  5
4373
330
18
100
AcDbEntity
  8
A-MORTAR
100
AcDbLine
 10
1528.318424087501
 20
1013.087831384139
 30
0.0
 11
1528.318424087501
 21
1013.087831384139
 31
0.0
1001
ACAD
1010
1556.829031629864
1020
1004.585152334205
1030
0.0
  0
LINE
  5
4374
330
18
100
AcDbEntity
  8
A-MORTAR
100
AcDbLine
 10
1528.194974913946
 20
1012.294833829574
 30
0.0
 11
1528.194974913946
 21
1012.294833829574
 31
0.0
1001
ACAD
1010
1556.829031629864
1020
1004.585152334205
1030
0.0
  0
LINE
  5
4375
330
18
100
AcDbEntity
  8
A-MORTAR
100
AcDbLine
 10
1528.351127479613
 20
1012.315391704848
 30
0.0
 11
1528.351127479613
 21
1012.315391704848
 31
0.0
1001
ACAD
1010
1556.829031629864
1020
1004.585152334205
1030
0.0
  0
LINE
  5
4376
330
18
100
AcDbEntity
  8
A-MORTAR
100
AcDbLine
 10
1528.595022915511
 20
1012.347501148135
 30
0.0
 11
1528.595022915511
 21
1012.347501148135
 31
0.0
1001
ACAD
1010
1556.829031629864
1020
1004.585152334205
1030
0.0
  0
LINE
  5
4377
330
18
100
AcDbEntity
  8
A-MORTAR
100
AcDbLine
 10
1529.002506753535
 20
1012.401147413137
 30
0.0
 11
1529.002506753535
 21
1012.401147413137
 31
0.0
1001
ACAD
1010
1556.829031629864
1020
1004.585152334205
1030
0.0
  0
LINE
  5
4378
330
18
100
AcDbEntity
  8
A-MORTAR
100
AcDbLine
 10
1529.158659319202
 20
1012.421705288412
 30
0.0
 11
1529.158659319202
 21
1012.421705288412
 31
0.0
1001
ACAD
1010
1556.829031629864
1020
1004.585152334205
1030
0.0
  0
LINE
  5
4379
330
18
100
AcDbEntity
  8
A-MORTAR
100
AcDbLine
 10
1528.064089903929
 20
1011.500857328565
 30
0.0
 11
1528.064089903929
 21
1011.500857328565
 31
0.0
1001
ACAD
1010
1556.829031629864
1020
1004.585152334205
1030
0.0
  0
LINE
  5
437A
330
18
100
AcDbEntity
  8
A-MORTAR
100
AcDbLine
 10
1528.471573741954
 20
1011.554503593567
 30
0.0
 11
1528.471573741954
 21
1011.554503593567
 31
0.0
1001
ACAD
1010
1556.829031629864
1020
1004.585152334205
1030
0.0
  0
LINE
  5
437B
330
18
100
AcDbEntity
  8
A-MORTAR
100
AcDbLine
 10
1528.62772630762
 20
1011.575061468842
 30
0.0
 11
1528.62772630762
 21
1011.575061468842
 31
0.0
1001
ACAD
1010
1556.829031629864
1020
1004.585152334205
1030
0.0
  0
LINE
  5
437C
330
18
100
AcDbEntity
  8
A-MORTAR
100
AcDbLine
 10
1528.871621743518
 20
1011.607170912128
 30
0.0
 11
1528.871621743518
 21
1011.607170912128
 31
0.0
1001
ACAD
1010
1556.829031629864
1020
1004.585152334205
1030
0.0
  0
LINE
  5
437D
330
18
100
AcDbEntity
  8
A-MORTAR
100
AcDbLine
 10
1529.279105581543
 20
1011.660817177131
 30
0.0
 11
1529.279105581543
 21
1011.660817177131
 31
0.0
1001
ACAD
1010
1556.829031629864
1020
1004.585152334205
1030
0.0
  0
LINE
  5
437E
330
18
100
AcDbEntity
  8
A-MORTAR
100
AcDbLine
 10
1528.835102568315
 20
1012.974604656812
 30
0.0
 11
1528.835102568315
 21
1012.974604656812
 31
0.0
1001
ACAD
1010
1556.829031629864
1020
1004.585152334205
1030
0.0
  0
LINE
  5
437F
330
18
100
AcDbEntity
  8
A-MORTAR
100
AcDbLine
 10
1528.961611285187
 20
1012.89400971556
 30
0.0
 11
1528.961611285187
 21
1012.89400971556
 31
0.0
1001
ACAD
1010
1556.829031629864
1020
1004.585152334205
1030
0.0
  0
LINE
  5
4380
330
18
100
AcDbEntity
  8
A-MORTAR
100
AcDbLine
 10
1528.027368726662
 20
1012.892311999498
 30
0.0
 11
1528.027368726662
 21
1012.892311999498
 31
0.0
1001
ACAD
1010
1556.829031629864
1020
1004.585152334205
1030
0.0
  0
LINE
  5
4381
330
18
100
AcDbEntity
  8
A-MORTAR
100
AcDbLine
 10
1528.482800107401
 20
1012.602170210991
 30
0.0
 11
1528.482800107401
 21
1012.602170210991
 31
0.0
1001
ACAD
1010
1556.829031629864
1020
1004.585152334205
1030
0.0
  0
LINE
  5
4382
330
18
100
AcDbEntity
  8
A-MORTAR
100
AcDbLine
 10
1529.077391076699
 20
1012.223373987106
 30
0.0
 11
1529.077391076699
 21
1012.223373987106
 31
0.0
1001
ACAD
1010
1556.829031629864
1020
1004.585152334205
1030
0.0
  0
LINE
  5
4383
330
18
100
AcDbEntity
  8
A-MORTAR
100
AcDbLine
 10
1529.203899793571
 20
1012.142779045854
 30
0.0
 11
1529.203899793571
 21
1012.142779045854
 31
0.0
1001
ACAD
1010
1556.829031629864
1020
1004.585152334205
1030
0.0
  0
LINE
  5
4384
330
18
100
AcDbEntity
  8
A-MORTAR
100
AcDbLine
 10
1528.143148518174
 20
1012.221676271045
 30
0.0
 11
1528.143148518174
 21
1012.221676271045
 31
0.0
1001
ACAD
1010
1556.829031629864
1020
1004.585152334205
1030
0.0
  0
LINE
  5
4385
330
18
100
AcDbEntity
  8
A-MORTAR
100
AcDbLine
 10
1528.269657235046
 20
1012.141081329793
 30
0.0
 11
1528.269657235046
 21
1012.141081329793
 31
0.0
1001
ACAD
1010
1556.829031629864
1020
1004.585152334205
1030
0.0
  0
LINE
  5
4386
330
18
100
AcDbEntity
  8
A-MORTAR
100
AcDbLine
 10
1528.725088615785
 20
1011.850939541286
 30
0.0
 11
1528.725088615785
 21
1011.850939541286
 31
0.0
1001
ACAD
1010
1556.829031629864
1020
1004.585152334205
1030
0.0
  0
LINE
  5
4387
330
18
100
AcDbEntity
  8
A-MORTAR
100
AcDbLine
 10
1529.319679585083
 20
1011.472143317402
 30
0.0
 11
1529.319679585083
 21
1011.472143317402
 31
0.0
1001
ACAD
1010
1556.829031629864
1020
1004.585152334205
1030
0.0
  0
LINE
  5
4388
330
18
100
AcDbEntity
  8
A-MORTAR
100
AcDbLine
 10
1528.385437026557
 20
1011.47044560134
 30
0.0
 11
1528.385437026557
 21
1011.47044560134
 31
0.0
1001
ACAD
1010
1556.829031629864
1020
1004.585152334205
1030
0.0
  0
LINE
  5
4389
330
18
100
AcDbEntity
  8
A-MORTAR
100
AcDbLine
 10
1528.025091832975
 20
1013.122237690543
 30
0.0
 11
1528.025091832975
 21
1013.122237690543
 31
0.0
1001
ACAD
1010
1556.829031629864
1020
1004.585152334205
1030
0.0
  0
LINE
  5
438A
330
18
100
AcDbEntity
  8
A-MORTAR
100
AcDbLine
 10
1528.080387633236
 20
1013.071568424972
 30
0.0
 11
1528.080387633236
 21
1013.071568424972
 31
0.0
1001
ACAD
1010
1556.829031629864
1020
1004.585152334205
1030
0.0
  0
LINE
  5
438B
330
18
100
AcDbEntity
  8
A-MORTAR
100
AcDbLine
 10
1528.341383810467
 20
1012.832409491476
 30
0.0
 11
1528.341383810467
 21
1012.832409491476
 31
0.0
1001
ACAD
1010
1556.829031629864
1020
1004.585152334205
1030
0.0
  0
LINE
  5
438C
330
18
100
AcDbEntity
  8
A-MORTAR
100
AcDbLine
 10
1528.639981131875
 20
1012.558795457392
 30
0.0
 11
1528.639981131875
 21
1012.558795457392
 31
0.0
1001
ACAD
1010
1556.829031629864
1020
1004.585152334205
1030
0.0
  0
LINE
  5
438D
330
18
100
AcDbEntity
  8
A-MORTAR
100
AcDbLine
 10
1528.695276932136
 20
1012.50812619182
 30
0.0
 11
1528.695276932136
 21
1012.50812619182
 31
0.0
1001
ACAD
1010
1556.829031629864
1020
1004.585152334205
1030
0.0
  0
LINE
  5
438E
330
18
100
AcDbEntity
  8
A-MORTAR
100
AcDbLine
 10
1528.956273109367
 20
1012.268967258325
 30
0.0
 11
1528.956273109367
 21
1012.268967258325
 31
0.0
1001
ACAD
1010
1556.829031629864
1020
1004.585152334205
1030
0.0
  0
LINE
  5
438F
330
18
100
AcDbEntity
  8
A-MORTAR
100
AcDbLine
 10
1529.254870430775
 20
1011.99535322424
 30
0.0
 11
1529.254870430775
 21
1011.99535322424
 31
0.0
1001
ACAD
1010
1556.829031629864
1020
1004.585152334205
1030
0.0
  0
LINE
  5
4390
330
18
100
AcDbEntity
  8
A-MORTAR
100
AcDbLine
 10
1529.310166231036
 20
1011.944683958669
 30
0.0
 11
1529.310166231036
 21
1011.944683958669
 31
0.0
1001
ACAD
1010
1556.829031629864
1020
1004.585152334205
1030
0.0
  0
LINE
  5
4391
330
18
100
AcDbEntity
  8
A-MORTAR
100
AcDbLine
 10
1528.054435127995
 20
1012.005664588844
 30
0.0
 11
1528.054435127995
 21
1012.005664588844
 31
0.0
1001
ACAD
1010
1556.829031629864
1020
1004.585152334205
1030
0.0
  0
LINE
  5
4392
330
18
100
AcDbEntity
  8
A-MORTAR
100
AcDbLine
 10
1528.353032449404
 20
1011.732050554759
 30
0.0
 11
1528.353032449404
 21
1011.732050554759
 31
0.0
1001
ACAD
1010
1556.829031629864
1020
1004.585152334205
1030
0.0
  0
LINE
  5
4393
330
18
100
AcDbEntity
  8
A-MORTAR
100
AcDbLine
 10
1528.408328249664
 20
1011.681381289188
 30
0.0
 11
1528.408328249664
 21
1011.681381289188
 31
0.0
1001
ACAD
1010
1556.829031629864
1020
1004.585152334205
1030
0.0
  0
ARC
  5
4394
330
18
100
AcDbEntity
  8
A-MORTAR
100
AcDbCircle
 10
1525.905102495919
 20
1012.406247885278
 30
0.0
 40
2.132248463863932
100
AcDbArc
 50
333.9167438996768
 51
26.083256100397
  0
LINE
  5
4395
330
18
100
AcDbEntity
  8
A-BACKING
100
AcDbLine
 10
1530.094617688048
 20
1014.979804696227
 30
0.0
 11
1530.094617688049
 21
1011.163558379782
 31
0.0
  0
LINE
  5
4396
330
18
100
AcDbEntity
  8
A-BACKING
100
AcDbLine
 10
1530.319617688049
 20
1014.805162840023
 30
0.0
 11
1530.319617688049
 21
1011.338200235987
 31
0.0
  0
LINE
  5
4397
330
18
100
AcDbEntity
  8
A-BACKING
100
AcDbLine
 10
1530.094617688048
 20
1014.855652609224
 30
0.0
 11
1530.167207416496
 21
1014.928242337671
 31
0.0
1001
ACAD
1010
1563.922778005022
1020
1001.741402334205
1030
0.0
  0
LINE
  5
4398
330
18
100
AcDbEntity
  8
A-BACKING
100
AcDbLine
 10
1530.094617688048
 20
1014.325322523334
 30
0.0
 11
1530.319617688049
 21
1014.550322523335
 31
0.0
1001
ACAD
1010
1563.922778005022
1020
1001.741402334205
1030
0.0
  0
LINE
  5
4399
330
18
100
AcDbEntity
  8
A-BACKING
100
AcDbLine
 10
1530.094617688048
 20
1013.794992437444
 30
0.0
 11
1530.319617688049
 21
1014.019992437445
 31
0.0
1001
ACAD
1010
1563.922778005022
1020
1001.741402334205
1030
0.0
  0
LINE
  5
439A
330
18
100
AcDbEntity
  8
A-BACKING
100
AcDbLine
 10
1530.094617688048
 20
1013.264662351554
 30
0.0
 11
1530.319617688049
 21
1013.489662351555
 31
0.0
1001
ACAD
1010
1563.922778005022
1020
1001.741402334205
1030
0.0
  0
LINE
  5
439B
330
18
100
AcDbEntity
  8
A-BACKING
100
AcDbLine
 10
1530.094617688048
 20
1012.734332265664
 30
0.0
 11
1530.319617688049
 21
1012.959332265665
 31
0.0
1001
ACAD
1010
1563.922778005022
1020
1001.741402334205
1030
0.0
  0
LINE
  5
439C
330
18
100
AcDbEntity
  8
A-BACKING
100
AcDbLine
 10
1530.094617688048
 20
1012.204002179774
 30
0.0
 11
1530.319617688049
 21
1012.429002179775
 31
0.0
1001
ACAD
1010
1563.922778005022
1020
1001.741402334205
1030
0.0
  0
LINE
  5
439D
330
18
100
AcDbEntity
  8
A-BACKING
100
AcDbLine
 10
1530.094617688048
 20
1011.673672093885
 30
0.0
 11
1530.319617688049
 21
1011.898672093886
 31
0.0
1001
ACAD
1010
1563.922778005022
1020
1001.741402334205
1030
0.0
  0
LINE
  5
439E
330
18
100
AcDbEntity
  8
A-BACKING
100
AcDbLine
 10
1530.094617688048
 20
1011.143342007995
 30
0.0
 11
1530.319617688049
 21
1011.368342007996
 31
0.0
1001
ACAD
1010
1563.922778005022
1020
1001.741402334205
1030
0.0
  0
LINE
  5
439F
330
18
100
AcDbEntity
  8
A-BACKING
100
AcDbLine
 10
1530.396884183322
 20
1014.733970253503
 30
0.0
 11
1530.396884183321
 21
1011.409392822506
 31
0.0
  0
CIRCLE
  5
43A0
330
18
100
AcDbEntity
  8
A-NOTE
  6
HIDDEN2
100
AcDbCircle
 10
1528.793836438049
 20
1013.071681538005
 30
0.0
 40
2.309321512326733
  0
LINE
  5
43A1
330
18
100
AcDbEntity
  8
A-NOTE
100
AcDbLine
 10
1535.552423322923
 20
1010.274582266146
 30
0.0
 11
1531.425603385871
 21
1010.274582266146
 31
0.0
  0
LINE
  5
43A2
330
18
100
AcDbEntity
  8
A-NOTE
100
AcDbLine
 10
1531.425603385871
 20
1010.274582266146
 30
0.0
 11
1530.376309714261
 21
1011.38979444983
 31
0.0
  0
MTEXT
  5
43A3
330
18
100
AcDbEntity
  8
A-NOTE
100
AcDbMText
 10
1532.003357814195
 20
1014.863271970672
 30
0.0
 40
0.25
 41
3.229579997254859
 71
     1
 72
     5
  1
\A1;INTERLOCKING EDGES FOR STRAIGHT AND HORIZONTAL LINES
  7
ROMANS
  0
MTEXT
  5
43A4
330
18
100
AcDbEntity
  8
A-NOTE
100
AcDbMText
 10
1532.006913306788
 20
1009.188635212073
 30
0.0
 40
0.25
 41
3.532930258562828
 71
     1
 72
     5
  1
\A1;MORTAR ANCHORING SLOT TO ENSURE A BONDING TO THE GRID
  7
ROMANS
  0
MTEXT
  5
43A5
330
18
100
AcDbEntity
  8
A-NOTE
100
AcDbMText
 10
1532.016380888527
 20
1005.967970546087
 30
0.0
 40
0.25
 41
3.229579997254859
 71
     1
 72
     5
  1
\A1;1/2" THICK \PREAL BRICK
  7
ROMANS
  0
LEADER
  5
43A6
330
18
100
AcDbEntity
  8
A-NOTE
100
AcDbLeader
  3
DIM-1
 76
     3
 10
1535.994513506045
 20
1005.788503201072
 30
0.0
 10
1534.514370059491
 20
1005.788503201072
 30
0.0
 10
1533.841344308316
 20
1005.788503201072
 30
0.0
 77
   256
1001
ACAD
1000
DSTYLE
1002
{
1070
     6
1000

1070
    77
1070
     0
1070
   147
1040
0.0625
1070
   341
1005
0
1002
}
  0
LEADER
  5
43A7
330
18
100
AcDbEntity
  8
A-NOTE
100
AcDbLeader
  3
DIM-1
 76
     3
 10
1536.504201829078
 20
1003.503739456013
 30
0.0
 10
1535.686792970658
 20
1003.503739456013
 30
0.0
 10
1535.370099539281
 20
1003.503739456013
 30
0.0
 77
   256
1001
ACAD
1000
DSTYLE
1002
{
1070
     6
1000

1070
    77
1070
     0
1070
   147
1040
0.0625
1070
   341
1005
0
1002
}
  0
HATCH
  5
43A8
330
18
100
AcDbEntity
  8
A-HATCH
100
AcDbHatch
 10
0.0
 20
0.0
 30
0.0
210
0.0
220
0.0
230
1.0
  2
EARTH
 70
     0
 71
     0
 91
        1
 92
        1
 93
        4
 72
     1
 10
1536.856546408789
 20
1000.240271048571
 11
1531.2883912575
 21
999.9824439323748
 72
     1
 10
1531.2883912575
 20
999.9824439323748
 11
1531.2883912575
 21
999.3492564359548
 72
     1
 10
1531.2883912575
 20
999.3492564359548
 11
1536.856546408789
 21
999.3492564359547
 72
     1
 10
1536.856546408789
 20
999.3492564359547
 11
1536.856546408789
 21
1000.240271048571
 97
        0
 75
     0
 76
     1
 52
0.0
 41
1.25
 77
     0
 78
     6
 53
0.0
 43
1531.2883912575
 44
999.3492564359547
 45
0.3125
 46
0.3125
 79
     2
 49
0.3125
 49
-0.3125
 53
0.0
 43
1531.2883912575
 44
999.4664439359547
 45
0.3125
 46
0.3125
 79
     2
 49
0.3125
 49
-0.3125
 53
0.0
 43
1531.2883912575
 44
999.5836314359547
 45
0.3125
 46
0.3125
 79
     2
 49
0.3125
 49
-0.3125
 53
90.0
 43
1531.3274537575
 44
999.6226939359547
 45
-0.3124999999999999
 46
0.3125
 79
     2
 49
0.3125
 49
-0.3125
 53
90.0
 43
1531.4446412575
 44
999.6226939359547
 45
-0.3124999999999999
 46
0.3125
 79
     2
 49
0.3125
 49
-0.3125
 53
90.0
 43
1531.5618287575
 44
999.6226939359547
 45
-0.3124999999999999
 46
0.3125
 79
     2
 49
0.3125
 49
-0.3125
 98
        1
 10
-27.16698709465709
 20
-0.5948812856346422
1001
ACAD
1010
1558.455378352157
1020
999.9441377215893
1030
0.0
  0
MTEXT
  5
43A9
330
18
100
AcDbEntity
  8
A-NOTE
100
AcDbMText
 10
1537.682613189971
 20
1011.745585039684
 30
0.0
 40
0.25
 41
2.547618775369983
 71
     1
 72
     5
  1
\A1;SHEATHING
  7
ROMANS
  0
LEADER
  5
43AA
330
18
100
AcDbEntity
  8
A-NOTE
100
AcDbLeader
  3
DIM-1
 76
     3
 10
1537.20291394706
 20
1011.087451265836
 30
0.0
 10
1537.390665005279
 20
1011.614844867712
 30
0.0
 10
1537.584042479408
 20
1011.614844867712
 30
0.0
 77
   256
1001
ACAD
1000
DSTYLE
1002
{
1070
     6
1000

1070
    77
1070
     0
1070
   147
1040
0.0625
1070
   341
1005
0
1002
}
  0
LINE
  5
43AB
330
18
100
AcDbEntity
  8
A-NOTE
100
AcDbLine
 10
1539.16370384867
 20
1011.236397955226
 30
0.0
 11
1539.16370384867
 21
1009.114142888333
 31
0.0
  0
LINE
  5
43AC
330
18
100
AcDbEntity
  8
A-NOTE
100
AcDbLine
 10
1539.163703848669
 20
1008.786894468481
 30
0.0
 11
1539.163703848669
 21
1001.064463072077
 31
0.0
  0
LINE
  5
43AD
330
18
100
AcDbEntity
  8
A-NOTE
100
AcDbLine
 10
1539.16370384867
 20
1000.737214652225
 30
0.0
 11
1539.16370384867
 21
999.2795383085286
 31
0.0
  0
LINE
  5
43AE
330
18
100
AcDbEntity
  8
A-NOTE
100
AcDbLine
 10
1539.16370384867
 20
1009.114142888333
 30
0.0
 11
1539.077723611955
 21
1009.114142888333
 31
0.0
  0
ARC
  5
43AF
330
18
100
AcDbEntity
  8
A-NOTE
100
AcDbCircle
 10
1539.077723611955
 20
1009.064142888333
 30
0.0
 40
0.05
100
AcDbArc
 50
90.0
 51
237.657711348059
  0
LINE
  5
43B0
330
18
100
AcDbEntity
  8
A-NOTE
100
AcDbLine
 10
1539.050974808383
 20
1009.02189952782
 30
0.0
 11
1539.276432888956
 21
1008.879137828995
 31
0.0
  0
ARC
  5
43B1
330
18
100
AcDbEntity
  8
A-NOTE
100
AcDbCircle
 10
1539.249684085384
 20
1008.836894468481
 30
0.0
 40
0.05
100
AcDbArc
 50
270.0
 51
57.65771134807559
  0
LINE
  5
43B2
330
18
100
AcDbEntity
  8
A-NOTE
100
AcDbLine
 10
1539.249684085384
 20
1008.786894468481
 30
0.0
 11
1539.16370384867
 21
1008.786894468481
 31
0.0
  0
LINE
  5
43B3
330
18
100
AcDbEntity
  8
A-NOTE
100
AcDbLine
 10
1539.16370384867
 20
1001.064463072077
 30
0.0
 11
1539.077723611955
 21
1001.064463072077
 31
0.0
  0
ARC
  5
43B4
330
18
100
AcDbEntity
  8
A-NOTE
100
AcDbCircle
 10
1539.077723611955
 20
1001.014463072077
 30
0.0
 40
0.05
100
AcDbArc
 50
90.0
 51
237.657711348059
  0
LINE
  5
43B5
330
18
100
AcDbEntity
  8
A-NOTE
100
AcDbLine
 10
1539.050974808383
 20
1000.972219711564
 30
0.0
 11
1539.276432888956
 21
1000.829458012739
 31
0.0
  0
ARC
  5
43B6
330
18
100
AcDbEntity
  8
A-NOTE
100
AcDbCircle
 10
1539.249684085384
 20
1000.787214652225
 30
0.0
 40
0.05
100
AcDbArc
 50
270.0
 51
57.65771134807559
  0
LINE
  5
43B7
330
18
100
AcDbEntity
  8
A-NOTE
100
AcDbLine
 10
1539.249684085384
 20
1000.737214652225
 30
0.0
 11
1539.16370384867
 21
1000.737214652225
 31
0.0
  0
LEADER
  5
43B8
330
18
100
AcDbEntity
  8
A-NOTE
100
AcDbLeader
  3
DIM-1
 76
     3
 10
1529.208323704402
 20
1012.428091642443
 30
0.0
 10
1528.209178965146
 20
1008.670453781152
 30
0.0
 10
1531.851194817619
 20
1008.670453781152
 30
0.0
 77
   256
1001
ACAD
1000
DSTYLE
1002
{
1070
     6
1000

1070
    77
1070
     0
1070
   147
1040
0.0625
1070
   341
1005
0
1002
}
  0
LEADER
  5
43B9
330
18
100
AcDbEntity
  8
A-NOTE
100
AcDbLeader
  3
DIM-1
 76
     3
 10
1529.321585494448
 20
1013.239764372667
 30
0.0
 10
1529.794214251177
 20
1013.901702108665
 30
0.0
 10
1531.846249378252
 20
1013.901702108665
 30
0.0
 77
   256
1001
ACAD
1000
DSTYLE
1002
{
1070
     6
1000

1070
    77
1070
     0
1070
   147
1040
0.0625
1070
   341
1005
0
1002
}
  0
LEADER
  5
43BA
330
18
100
AcDbEntity
  8
A-NOTE
100
AcDbLeader
  3
DIM-1
 76
     3
 10
1536.408082323941
 20
1010.047149804435
 30
0.0
 10
1535.579738772107
 20
1008.657925822458
 30
0.0
 10
1535.13659713658
 20
1008.657925822458
 30
0.0
 77
   256
1001
ACAD
1000
DSTYLE
1002
{
1070
     6
1000

1070
    77
1070
     0
1070
   147
1040
0.0625
1070
   341
1005
0
1002
}
  0
LWPOLYLINE
  5
43BB
330
18
100
AcDbEntity
  8
A-MTL_GRID
100
AcDbPolyline
 90
        5
 70
     0
 43
0.0
 10
1536.505790910365
 20
1010.00589604857
 10
1536.505194816494
 20
1010.009984460625
 42
0.2963606241459967
 10
1536.475739845196
 20
1010.04349958344
 42
-0.3172475355618613
 10
1536.414314795476
 20
1010.119020277336
 10
1536.414314795476
 20
1010.141232278254
  0
LWPOLYLINE
  5
43BC
330
18
100
AcDbEntity
  8
A-MTL_GRID
100
AcDbPolyline
 90
        5
 70
     0
 43
0.0
 10
1536.505790910365
 20
1007.13089604857
 10
1536.505194816494
 20
1007.134984460625
 42
0.2963606241459967
 10
1536.475739845196
 20
1007.16849958344
 42
-0.3172475355618613
 10
1536.414314795476
 20
1007.244020277336
 10
1536.414314795476
 20
1007.266232278254
  0
LWPOLYLINE
  5
43BD
330
18
100
AcDbEntity
  8
A-MTL_GRID
100
AcDbPolyline
 90
        5
 70
     0
 43
0.0
 10
1536.505790910365
 20
1004.25589604857
 10
1536.505194816494
 20
1004.259984460625
 42
0.2963606241459967
 10
1536.475739845196
 20
1004.29349958344
 42
-0.3172475355618613
 10
1536.414314795476
 20
1004.369020277336
 10
1536.414314795476
 20
1004.391232278254
  0
LWPOLYLINE
  5
43BE
330
18
100
AcDbEntity
  8
A-MTL_GRID
100
AcDbPolyline
 90
        5
 70
     0
 43
0.0
 10
1529.34461768805
 20
1012.265622885277
 10
1529.342829406438
 20
1012.27788812144
 42
0.2963606241459967
 10
1529.254464492544
 20
1012.378433489886
 42
-0.3172475355618613
 10
1529.070189343383
 20
1012.604995571574
 10
1529.070189343383
 20
1012.671631574327
  0
LINE
  5
43BF
330
18
100
AcDbEntity
  8
A-NOTE
100
AcDbLine
 10
1539.163703848669
 20
1002.865271048571
 30
0.0
 11
1540.072642528555
 21
1002.865271048571
 31
0.0
  0
LINE
  5
43C0
330
18
100
AcDbEntity
  8
A-NOTE
100
AcDbLine
 10
1536.981546408789
 20
1001.740271048571
 30
0.0
 11
1540.072642528555
 21
1001.740271048571
 31
0.0
  0
LINE
  5
43C1
330
18
100
AcDbEntity
  8
A-NOTE
100
AcDbLine
 10
1539.947642528555
 20
1002.990271048571
 30
0.0
 11
1539.947642528555
 21
1001.615271048571
 31
0.0
  0
INSERT
  5
43C2
330
18
100
AcDbEntity
  8
A-NOTE
100
AcDbBlockReference
  2
_ARCHTICK
 10
1539.947642528555
 20
1002.865271048571
 30
0.0
 41
0.1875
 42
0.1875
 43
0.1875
 50
90.0
  0
INSERT
  5
43C3
330
18
100
AcDbEntity
  8
A-NOTE
100
AcDbBlockReference
  2
_ARCHTICK
 10
1539.947642528555
 20
1001.740271048571
 30
0.0
 41
0.1875
 42
0.1875
 43
0.1875
 50
270.0
  0
MTEXT
  5
43C4
330
18
100
AcDbEntity
  8
A-NOTE
100
AcDbMText
 10
1539.576773805441
 20
1002.325014370104
 30
0.0
 40
0.1875
 41
0.0
 71
     5
 72
     1
  1
\A1;1\S1/2;" MAX.
  7
ROMANS
 11
6.123233995736766E-17
 21
1.0
 31
0.0
  0
HATCH
  5
43C5
330
18
100
AcDbEntity
  8
A-HATCH
100
AcDbHatch
 10
0.0
 20
0.0
 30
0.0
210
0.0
220
0.0
230
1.0
  2
AR-CONC
 70
     0
 71
     0
 91
        1
 92
        1
 93
        4
 72
     1
 10
1539.16370384867
 20
999.2795383085286
 11
1536.856546408789
 21
999.2795383085286
 72
     1
 10
1536.856546408789
 20
999.2795383085286
 11
1536.856546408789
 21
1002.865271048571
 72
     1
 10
1536.856546408789
 20
1002.865271048571
 11
1539.16370384867
 21
1002.865271048571
 72
     1
 10
1539.16370384867
 20
1002.865271048571
 11
1539.16370384867
 21
999.2795383085286
 97
        0
 75
     0
 76
     1
 52
0.0
 41
0.2
 77
     0
 78
    13
 53
49.99999999999999
 43
1536.856546408789
 44
999.2795383085286
 45
1.434520365201507
 46
-0.1255042699651902
 79
     2
 49
0.15
 49
-1.65
 53
355.0
 43
1536.856546408789
 44
999.2795383085286
 45
-0.277502667226
 46
1.504384267400024
 79
     2
 49
0.12
 49
-1.32
 53
100.4514
 43
1536.976089768789
 44
999.2690796285285
 45
1.157018763428043
 46
1.378879084121907
 79
     2
 49
0.12748038
 49
-1.402284224
 53
46.1842
 43
1536.856546408789
 44
999.6795383085285
 45
2.134482097251289
 46
-0.3310380286580362
 79
     2
 49
0.225
 49
-2.475
 53
96.6356
 43
1537.034419898789
 44
999.6519516945285
 45
1.869325411097407
 46
1.948235741800884
 79
     2
 49
0.191220576
 49
-2.103426
 53
351.1842
 43
1536.856546408789
 44
999.6795383085285
 45
1.869323890267254
 46
1.948237201850649
 79
     2
 49
0.18
 49
-1.98
 53
21.0
 43
1537.056546408789
 44
999.5795383085285
 45
1.193814104236923
 46
-0.8052377813306777
 79
     2
 49
0.15
 49
-1.65
 53
326.0
 43
1537.056546408789
 44
999.5795383085285
 45
0.4866306638431634
 46
1.450300090093706
 79
     2
 49
0.12
 49
-1.32
 53
71.4514
 43
1537.156030874789
 44
999.5124350965285
 45
1.68044525716298
 46
0.6450609934199049
 79
     2
 49
0.12748038
 49
-1.402284224
 53
37.5
 43
1536.856546408789
 44
999.2795383085286
 45
0.0243197106345813
 46
0.6657877076626231
 79
     6
 49
0.0
 49
-1.304
 49
0.0
 49
-1.34
 49
0.0
 49
-1.325
 53
7.499999999999999
 43
1536.856546408789
 44
999.2795383085286
 45
0.5261390748842972
 46
0.7888234237647205
 79
     6
 49
0.0
 49
-0.764
 49
0.0
 49
-1.274
 49
0.0
 49
-0.505
 53
327.5
 43
1536.410546408789
 44
999.2795383085286
 45
1.067644872344818
 46
-0.0451097434687596
 79
     6
 49
0.0
 49
-0.5
 49
0.0
 49
-1.56
 49
0.0
 49
-2.07
 53
317.5
 43
1536.210546408789
 44
999.2795383085286
 45
1.166372338684772
 46
0.2002099646646353
 79
     6
 49
0.0
 49
-0.65
 49
0.0
 49
-1.036
 49
0.0
 49
-1.47
 98
        1
 10
-28.44129143823397
 20
0.0
1001
ACAD
1010
1564.023533503446
1020
999.9317067328241
1030
0.0
  0
LEADER
  5
43C6
330
18
100
AcDbEntity
  8
A-NOTE
100
AcDbLeader
  3
DIM-1
 76
     3
 10
1536.486506754217
 20
1007.035878170284
 30
0.0
 10
1534.84461221049
 20
1007.035878170284
 30
0.0
 10
1534.504320092173
 20
1007.035878170284
 30
0.0
 77
   256
1001
ACAD
1000
DSTYLE
1002
{
1070
     6
1000

1070
    77
1070
     0
1070
   147
1040
0.0625
1070
   341
1005
0
1002
}
  0
MTEXT
  5
43C7
330
18
100
AcDbEntity
  8
A-NOTE
100
AcDbMText
 10
1560.142071404524
 20
996.5181404071787
 30
0.0
 40
0.1873125
 41
4.234512182257921
 71
     1
 72
     5
  1
\A1;{\LAVAILABLE IN TWO SIZES}
  7
ROMANS
  0
MTEXT
  5
43C8
330
18
100
AcDbEntity
  8
A-NOTE
100
AcDbMText
 10
1560.156506366653
 20
996.1810669357667
 30
0.0
 40
0.1873125
 41
4.234512182257921
 71
     1
 72
     5
  1
\A1;48"(W) x 8-1/4"(H) \P96"(W) X 8 1/4"(H)
  7
ROMANS
  0
MTEXT
  5
43C9
330
18
100
AcDbEntity
  8
A-NOTE
 62
     1
100
AcDbMText
 10
1560.170987895815
 20
997.0294580281928
 30
0.0
 40
0.21853125
 41
5.498346853854837
 71
     1
 72
     5
  1
BRICK-IT  DESIGNER METAL GRID PANEL
  7
ROMANS
  0
MTEXT
  5
43CA
330
18
100
AcDbEntity
  8
A-NOTE
100
AcDbMText
 10
1561.354422637314
 20
997.0294869208427
 30
0.0
 40
0.124875
 41
0.3242662609890827
 71
     1
 72
     5
  1
TM
  7
ROMANS
  0
HATCH
  5
43CB
330
18
100
AcDbEntity
  8
A-HATCH
100
AcDbHatch
 10
0.0
 20
0.0
 30
0.0
210
0.0
220
0.0
230
1.0
  2
ANSI31
 70
     0
 71
     1
 91
        1
 92
        1
 93
        4
 72
     1
 10
1535.997649837026
 20
1012.615271048571
 11
1535.997649837026
 21
1010.365271048571
 72
     1
 10
1535.997649837026
 20
1010.365271048571
 11
1536.497649837026
 21
1010.365271048571
 72
     1
 10
1536.497649837026
 20
1010.365271048571
 11
1536.497649837026
 21
1012.615271048571
 72
     1
 10
1536.497649837026
 20
1012.615271048571
 11
1535.997649837026
 21
1012.615271048571
 97
        1
330
43CC
 75
     0
 76
     1
 52
0.0
 41
2.0
 77
     0
 78
     1
 53
45.0
 43
1534.380248017302
 44
1008.766369076456
 45
-0.1767766952966369
 46
0.1767766952966369
 79
     0
 98
        1
 10
-25.5577263482719
 20
9.629020686480544
1001
ACAD
1010
1561.555376185298
1020
1000.73625036209
1030
0.0
  0
LWPOLYLINE
  5
43CC
102
{ACAD_REACTORS
330
43CB
102
}
330
18
100
AcDbEntity
  8
A-BRICK
100
AcDbPolyline
 90
        5
 70
     0
 43
0.0
 10
1535.997649837026
 20
1012.615271048571
 10
1535.997649837026
 20
1010.365271048571
 10
1536.497649837026
 20
1010.365271048571
 10
1536.497649837026
 20
1012.615271048571
 10
1535.997649837026
 20
1012.615271048571
  0
LINE
  5
43CD
330
18
100
AcDbEntity
  8
A-MTL_GRID
100
AcDbLine
 10
1536.322197160365
 20
1018.943396048571
 30
0.0
 11
1536.505790910365
 21
1018.943396048571
 31
0.0
  0
LINE
  5
43CE
330
18
100
AcDbEntity
  8
A-MTL_GRID
100
AcDbLine
 10
1536.505790910365
 20
1018.943396048571
 30
0.0
 11
1536.505790910365
 21
1018.766232278254
 31
0.0
  0
LINE
  5
43CF
330
18
100
AcDbEntity
  8
A-MTL_GRID
100
AcDbLine
 10
1536.505790910365
 20
1018.63089604857
 30
0.0
 11
1536.505790910365
 21
1018.130896048571
 31
0.0
  0
LINE
  5
43D0
330
18
100
AcDbEntity
  8
A-MTL_GRID
100
AcDbLine
 10
1536.505790910365
 20
1017.755896048571
 30
0.0
 11
1536.505790910365
 21
1016.115271048571
 31
0.0
  0
LINE
  5
43D1
330
18
100
AcDbEntity
  8
A-MTL_GRID
100
AcDbLine
 10
1536.505790910365
 20
1016.115271048571
 30
0.0
 11
1536.318290910365
 21
1016.115271048571
 31
0.0
  0
ARC
  5
43D2
330
18
100
AcDbEntity
  8
A-MTL_GRID
100
AcDbCircle
 10
1536.322197160365
 20
1016.068396048571
 30
0.0
 40
0.0470374788234074
100
AcDbArc
 50
94.76364169072623
 51
265.2363583092738
  0
LINE
  5
43D3
330
18
100
AcDbEntity
  8
A-MTL_GRID
100
AcDbLine
 10
1536.318290910365
 20
1016.021521048571
 30
0.0
 11
1536.505790910365
 21
1016.02152104857
 31
0.0
  0
LINE
  5
43D4
330
18
100
AcDbEntity
  8
A-MTL_GRID
100
AcDbLine
 10
1536.505790910365
 20
1016.02152104857
 30
0.0
 11
1536.505790910365
 21
1015.891232278253
 31
0.0
  0
LINE
  5
43D5
330
18
100
AcDbEntity
  8
A-MTL_GRID
100
AcDbLine
 10
1536.505790910365
 20
1015.75589604857
 30
0.0
 11
1536.505790910365
 21
1015.255896048571
 31
0.0
  0
LINE
  5
43D6
330
18
100
AcDbEntity
  8
A-MTL_GRID
100
AcDbLine
 10
1536.505790910365
 20
1014.880896048571
 30
0.0
 11
1536.505790910365
 21
1013.240271048571
 31
0.0
  0
LINE
  5
43D7
330
18
100
AcDbEntity
  8
A-MTL_GRID
100
AcDbLine
 10
1536.505790910365
 20
1013.240271048571
 30
0.0
 11
1536.318290910365
 21
1013.240271048571
 31
0.0
  0
ARC
  5
43D8
330
18
100
AcDbEntity
  8
A-MTL_GRID
100
AcDbCircle
 10
1536.322197160365
 20
1013.193396048571
 30
0.0
 40
0.0470374788234074
100
AcDbArc
 50
94.76364169072623
 51
265.2363583092738
  0
LINE
  5
43D9
330
18
100
AcDbEntity
  8
A-MTL_GRID
100
AcDbLine
 10
1536.318290910365
 20
1013.146521048571
 30
0.0
 11
1536.505790910365
 21
1013.146521048571
 31
0.0
  0
LINE
  5
43DA
330
18
100
AcDbEntity
  8
A-MTL_GRID
100
AcDbLine
 10
1536.505790910365
 20
1013.146521048571
 30
0.0
 11
1536.505790910365
 21
1013.016232278253
 31
0.0
  0
LINE
  5
43DB
330
18
100
AcDbEntity
  8
A-MTL_GRID
100
AcDbLine
 10
1536.505790910365
 20
1012.88089604857
 30
0.0
 11
1536.505790910365
 21
1012.380896048571
 31
0.0
  0
LWPOLYLINE
  5
43DC
330
18
100
AcDbEntity
  8
A-MTL_GRID
100
AcDbPolyline
 90
        5
 70
     0
 43
0.0
 10
1536.505790910365
 20
1012.005896048571
 10
1536.505790910365
 20
1010.365271048571
 10
1536.318290910365
 20
1010.365271048571
 42
0.9201328815660246
 10
1536.318290910365
 20
1010.271521048571
 10
1536.462743796778
 20
1010.271521048571
  0
HATCH
  5
43DD
330
18
100
AcDbEntity
  8
A-HATCH
100
AcDbHatch
 10
0.0
 20
0.0
 30
0.0
210
0.0
220
0.0
230
1.0
  2
ANSI31
 70
     0
 71
     1
 91
        1
 92
        1
 93
        4
 72
     1
 10
1535.997649837026
 20
1015.490271048571
 11
1535.997649837026
 21
1013.240271048571
 72
     1
 10
1535.997649837026
 20
1013.240271048571
 11
1536.497649837026
 21
1013.240271048571
 72
     1
 10
1536.497649837026
 20
1013.240271048571
 11
1536.497649837026
 21
1015.490271048571
 72
     1
 10
1536.497649837026
 20
1015.490271048571
 11
1535.997649837026
 21
1015.490271048571
 97
        1
330
43DE
 75
     0
 76
     1
 52
0.0
 41
2.0
 77
     0
 78
     1
 53
45.0
 43
1534.380248017302
 44
1008.766369076456
 45
-0.1767766952966369
 46
0.1767766952966369
 79
     0
 98
        1
 10
-25.5577263482719
 20
12.50402068648043
1001
ACAD
1010
1561.555376185298
1020
1000.73625036209
1030
0.0
  0
LWPOLYLINE
  5
43DE
102
{ACAD_REACTORS
330
43DD
102
}
330
18
100
AcDbEntity
  8
A-BRICK
100
AcDbPolyline
 90
        5
 70
     0
 43
0.0
 10
1535.997649837026
 20
1015.490271048571
 10
1535.997649837026
 20
1013.240271048571
 10
1536.497649837026
 20
1013.240271048571
 10
1536.497649837026
 20
1015.490271048571
 10
1535.997649837026
 20
1015.490271048571
  0
HATCH
  5
43DF
330
18
100
AcDbEntity
  8
A-HATCH
100
AcDbHatch
 10
0.0
 20
0.0
 30
0.0
210
0.0
220
0.0
230
1.0
  2
ANSI31
 70
     0
 71
     1
 91
        1
 92
        1
 93
        4
 72
     1
 10
1535.997649837024
 20
1018.365271048571
 11
1535.997649837024
 21
1016.115271048571
 72
     1
 10
1535.997649837024
 20
1016.115271048571
 11
1536.497649837024
 21
1016.115271048571
 72
     1
 10
1536.497649837024
 20
1016.115271048571
 11
1536.497649837024
 21
1018.365271048571
 72
     1
 10
1536.497649837024
 20
1018.365271048571
 11
1535.997649837024
 21
1018.365271048571
 97
        1
330
43E0
 75
     0
 76
     1
 52
0.0
 41
2.0
 77
     0
 78
     1
 53
45.0
 43
1534.380248017302
 44
1008.766369076456
 45
-0.1767766952966369
 46
0.1767766952966369
 79
     0
 98
        1
 10
-25.55772634827372
 20
15.37902068648077
1001
ACAD
1010
1561.555376185298
1020
1000.73625036209
1030
0.0
  0
LWPOLYLINE
  5
43E0
102
{ACAD_REACTORS
330
43DF
102
}
330
18
100
AcDbEntity
  8
A-BRICK
100
AcDbPolyline
 90
        5
 70
     0
 43
0.0
 10
1535.997649837024
 20
1018.365271048571
 10
1535.997649837024
 20
1016.115271048571
 10
1536.497649837024
 20
1016.115271048571
 10
1536.497649837024
 20
1018.365271048571
 10
1535.997649837024
 20
1018.365271048571
  0
HATCH
  5
43E1
330
18
100
AcDbEntity
  8
A-MORTAR
100
AcDbHatch
 10
0.0
 20
0.0
 30
0.0
210
0.0
220
0.0
230
1.0
  2
AR-SAND
 70
     0
 71
     0
 91
        1
 92
        1
 93
        6
 72
     1
 10
1536.505790910366
 20
1013.146521048571
 11
1536.505790910365
 21
1012.615271048571
 72
     1
 10
1536.505790910365
 20
1012.615271048571
 11
1535.997649837027
 21
1012.615271048571
 72
     2
 10
1535.359285846322
 20
1012.92777104857
 40
0.7107494879545938
 50
333.9167438996858
 51
386.0832561004044
 73
     1
 72
     1
 10
1535.997649837026
 20
1013.240271048571
 11
1536.318290910367
 21
1013.240271048571
 72
     2
 10
1536.322197160366
 20
1013.193396048571
 40
0.0470374788234641
 50
94.76364168988665
 51
265.2363583087218
 73
     1
 72
     1
 10
1536.318290910366
 20
1013.146521048571
 11
1536.505790910366
 21
1013.146521048571
 97
        0
 75
     0
 76
     1
 52
0.0
 41
0.1
 77
     0
 78
     4
 53
37.5
 43
1535.997649837026
 44
1012.615271048571
 45
-0.0062993358109608
 46
0.1926823769013159
 79
     6
 49
0.0
 49
-0.152
 49
0.0
 49
-0.17
 49
0.0
 49
-0.1625
 53
7.499999999999999
 43
1535.997649837026
 44
1012.615271048571
 45
0.1769776705267727
 46
0.282214606522974
 79
     6
 49
0.0
 49
-0.082
 49
0.0
 49
-0.137
 49
0.0
 49
-0.0525
 53
327.5
 43
1535.874649837026
 44
1012.615271048571
 45
0.3114141861751495
 46
0.0005659053536964
 79
     6
 49
0.0
 49
-0.05
 49
0.0
 49
-0.18
 49
0.0
 49
-0.235
 53
317.5
 43
1535.874649837026
 44
1012.615271048571
 45
0.3006126604572293
 46
0.0877675564934249
 79
     6
 49
0.0
 49
-0.025
 49
0.0
 49
-0.118
 49
0.0
 49
-0.135
 98
        1
 10
-20.83138179283787
 20
8.030118714365358
1001
ACAD
1010
1556.829031629864
1020
1004.585152334205
1030
0.0
  0
LWPOLYLINE
  5
43E2
330
18
100
AcDbEntity
  8
A-MORTAR
100
AcDbPolyline
 90
        2
 70
     0
 43
0.0
 10
1535.997649837027
 20
1012.615271048571
 42
0.2316335912014004
 10
1535.997649837026
 20
1013.240271048571
  0
HATCH
  5
43E3
330
18
100
AcDbEntity
  8
A-MORTAR
100
AcDbHatch
 10
0.0
 20
0.0
 30
0.0
210
0.0
220
0.0
230
1.0
  2
AR-SAND
 70
     0
 71
     0
 91
        1
 92
        1
 93
        6
 72
     1
 10
1536.505790910366
 20
1016.021521048571
 11
1536.505790910365
 21
1015.490271048571
 72
     1
 10
1536.505790910365
 20
1015.490271048571
 11
1535.997649837027
 21
1015.490271048571
 72
     2
 10
1535.359285846322
 20
1015.802771048571
 40
0.7107494879545938
 50
333.9167438996858
 51
386.0832561004044
 73
     1
 72
     1
 10
1535.997649837026
 20
1016.115271048571
 11
1536.318290910367
 21
1016.115271048571
 72
     2
 10
1536.322197160366
 20
1016.068396048571
 40
0.0470374788234641
 50
94.76364168988665
 51
265.2363583087218
 73
     1
 72
     1
 10
1536.318290910366
 20
1016.021521048571
 11
1536.505790910366
 21
1016.021521048571
 97
        0
 75
     0
 76
     1
 52
0.0
 41
0.1
 77
     0
 78
     4
 53
37.5
 43
1535.997649837026
 44
1015.490271048571
 45
-0.0062993358109608
 46
0.1926823769013159
 79
     6
 49
0.0
 49
-0.152
 49
0.0
 49
-0.17
 49
0.0
 49
-0.1625
 53
7.499999999999999
 43
1535.997649837026
 44
1015.490271048571
 45
0.1769776705267727
 46
0.282214606522974
 79
     6
 49
0.0
 49
-0.082
 49
0.0
 49
-0.137
 49
0.0
 49
-0.0525
 53
327.5
 43
1535.874649837026
 44
1015.490271048571
 45
0.3114141861751495
 46
0.0005659053536964
 79
     6
 49
0.0
 49
-0.05
 49
0.0
 49
-0.18
 49
0.0
 49
-0.235
 53
317.5
 43
1535.874649837026
 44
1015.490271048571
 45
0.3006126604572293
 46
0.0877675564934249
 79
     6
 49
0.0
 49
-0.025
 49
0.0
 49
-0.118
 49
0.0
 49
-0.135
 98
        1
 10
-20.83138179283787
 20
10.9051187143657
1001
ACAD
1010
1556.829031629864
1020
1004.585152334205
1030
0.0
  0
LWPOLYLINE
  5
43E4
330
18
100
AcDbEntity
  8
A-MORTAR
100
AcDbPolyline
 90
        2
 70
     0
 43
0.0
 10
1535.997649837027
 20
1015.490271048571
 42
0.2316335912014004
 10
1535.997649837026
 20
1016.115271048571
  0
HATCH
  5
43E5
330
18
100
AcDbEntity
  8
A-MORTAR
100
AcDbHatch
 10
0.0
 20
0.0
 30
0.0
210
0.0
220
0.0
230
1.0
  2
AR-SAND
 70
     0
 71
     0
 91
        1
 92
        1
 93
        6
 72
     1
 10
1536.505790910366
 20
1018.896521048571
 11
1536.505790910365
 21
1018.365271048571
 72
     1
 10
1536.505790910365
 20
1018.365271048571
 11
1535.997649837027
 21
1018.365271048571
 72
     2
 10
1535.359285846322
 20
1018.67777104857
 40
0.7107494879545938
 50
333.9167438996858
 51
386.0832561004044
 73
     1
 72
     1
 10
1535.997649837026
 20
1018.990271048571
 11
1536.318290910367
 21
1018.990271048571
 72
     2
 10
1536.322197160366
 20
1018.943396048571
 40
0.0470374788234641
 50
94.76364168988665
 51
265.2363583087218
 73
     1
 72
     1
 10
1536.318290910366
 20
1018.896521048571
 11
1536.505790910366
 21
1018.896521048571
 97
        0
 75
     0
 76
     1
 52
0.0
 41
0.1
 77
     0
 78
     4
 53
37.5
 43
1535.997649837026
 44
1018.365271048571
 45
-0.0062993358109608
 46
0.1926823769013159
 79
     6
 49
0.0
 49
-0.152
 49
0.0
 49
-0.17
 49
0.0
 49
-0.1625
 53
7.499999999999999
 43
1535.997649837026
 44
1018.365271048571
 45
0.1769776705267727
 46
0.282214606522974
 79
     6
 49
0.0
 49
-0.082
 49
0.0
 49
-0.137
 49
0.0
 49
-0.0525
 53
327.5
 43
1535.874649837026
 44
1018.365271048571
 45
0.3114141861751495
 46
0.0005659053536964
 79
     6
 49
0.0
 49
-0.05
 49
0.0
 49
-0.18
 49
0.0
 49
-0.235
 53
317.5
 43
1535.874649837026
 44
1018.365271048571
 45
0.3006126604572293
 46
0.0877675564934249
 79
     6
 49
0.0
 49
-0.025
 49
0.0
 49
-0.118
 49
0.0
 49
-0.135
 98
        1
 10
-20.83138179283787
 20
13.78011871436547
1001
ACAD
1010
1556.829031629864
1020
1004.585152334205
1030
0.0
  0
LWPOLYLINE
  5
43E6
330
18
100
AcDbEntity
  8
A-MORTAR
100
AcDbPolyline
 90
        2
 70
     0
 43
0.0
 10
1535.997649837027
 20
1018.365271048571
 42
0.2316335912014004
 10
1535.997649837026
 20
1018.990271048571
  0
LWPOLYLINE
  5
43E7
330
18
100
AcDbEntity
  8
A-MTL_GRID
100
AcDbPolyline
 90
        4
 70
     1
 43
0.0
 10
1536.515417857918
 20
1018.130896048571
 10
1536.497649837024
 20
1018.130896048571
 10
1536.497649837024
 20
1017.755896048571
 10
1536.515417857918
 20
1017.755896048571
  0
LWPOLYLINE
  5
43E8
330
18
100
AcDbEntity
  8
A-MTL_GRID
100
AcDbPolyline
 90
        4
 70
     1
 43
0.0
 10
1536.515417857918
 20
1015.255896048571
 10
1536.497649837024
 20
1015.255896048571
 10
1536.497649837024
 20
1014.880896048571
 10
1536.515417857918
 20
1014.880896048571
  0
LWPOLYLINE
  5
43E9
330
18
100
AcDbEntity
  8
A-MTL_GRID
100
AcDbPolyline
 90
        4
 70
     1
 43
0.0
 10
1536.515417857918
 20
1012.380896048571
 10
1536.497649837024
 20
1012.380896048571
 10
1536.497649837024
 20
1012.005896048571
 10
1536.515417857918
 20
1012.005896048571
  0
LWPOLYLINE
  5
43EA
330
18
100
AcDbEntity
  8
A-MTL_GRID
100
AcDbPolyline
 90
        5
 70
     0
 43
0.0
 10
1536.505790910365
 20
1018.63089604857
 10
1536.505194816494
 20
1018.634984460625
 42
0.2963606241459967
 10
1536.475739845196
 20
1018.66849958344
 42
-0.3172475355618613
 10
1536.414314795476
 20
1018.744020277336
 10
1536.414314795476
 20
1018.766232278254
  0
LWPOLYLINE
  5
43EB
330
18
100
AcDbEntity
  8
A-MTL_GRID
100
AcDbPolyline
 90
        5
 70
     0
 43
0.0
 10
1536.505790910365
 20
1015.75589604857
 10
1536.505194816494
 20
1015.759984460625
 42
0.2963606241459967
 10
1536.475739845196
 20
1015.79349958344
 42
-0.3172475355618613
 10
1536.414314795476
 20
1015.869020277336
 10
1536.414314795476
 20
1015.891232278254
  0
LWPOLYLINE
  5
43EC
330
18
100
AcDbEntity
  8
A-MTL_GRID
100
AcDbPolyline
 90
        5
 70
     0
 43
0.0
 10
1536.505790910365
 20
1012.88089604857
 10
1536.505194816494
 20
1012.884984460625
 42
0.2963606241459967
 10
1536.475739845196
 20
1012.91849958344
 42
-0.3172475355618613
 10
1536.414314795476
 20
1012.994020277336
 10
1536.414314795476
 20
1013.016232278254
  0
HATCH
  5
46F5
330
18
100
AcDbEntity
  8
A-HATCH
100
AcDbHatch
 10
0.0
 20
0.0
 30
0.0
210
0.0
220
0.0
230
1.0
  2
ANSI31
 70
     0
 71
     1
 91
        1
 92
        1
 93
        4
 72
     1
 10
1564.333567701957
 20
1027.821603166529
 11
1564.333567701957
 21
1025.571603166529
 72
     1
 10
1564.333567701957
 20
1025.571603166529
 11
1564.833567701957
 21
1025.571603166529
 72
     1
 10
1564.833567701957
 20
1025.571603166529
 11
1564.833567701957
 21
1027.821603166529
 72
     1
 10
1564.833567701957
 20
1027.821603166529
 11
1564.333567701957
 21
1027.821603166529
 97
        1
330
46F6
 75
     0
 76
     1
 52
0.0
 41
2.0
 77
     0
 78
     1
 53
45.0
 43
1562.716165882233
 44
1023.972701194413
 45
-0.1767766952966369
 46
0.1767766952966369
 79
     0
 98
        1
 10
2.77819151665949
 20
24.83535280443834
1001
ACAD
1010
1561.555376185298
1020
1000.73625036209
1030
0.0
  0
LWPOLYLINE
  5
46F6
102
{ACAD_REACTORS
330
46F5
102
}
330
18
100
AcDbEntity
  8
A-BRICK
100
AcDbPolyline
 90
        5
 70
     0
 43
0.0
 10
1564.333567701957
 20
1027.821603166529
 10
1564.333567701957
 20
1025.571603166529
 10
1564.833567701957
 20
1025.571603166529
 10
1564.833567701957
 20
1027.821603166529
 10
1564.333567701957
 20
1027.821603166529
  0
LINE
  5
46F7
330
18
100
AcDbEntity
  8
A-MTL_GRID
100
AcDbLine
 10
1564.658115025297
 20
1034.149728166529
 30
0.0
 11
1564.841708775297
 21
1034.149728166528
 31
0.0
  0
LINE
  5
46F8
330
18
100
AcDbEntity
  8
A-MTL_GRID
100
AcDbLine
 10
1564.841708775297
 20
1034.149728166528
 30
0.0
 11
1564.841708775297
 21
1033.972564396211
 31
0.0
  0
LINE
  5
46F9
330
18
100
AcDbEntity
  8
A-MTL_GRID
100
AcDbLine
 10
1564.841708775297
 20
1033.837228166528
 30
0.0
 11
1564.841708775297
 21
1033.337228166528
 31
0.0
  0
LINE
  5
46FA
330
18
100
AcDbEntity
  8
A-MTL_GRID
100
AcDbLine
 10
1564.841708775297
 20
1032.962228166528
 30
0.0
 11
1564.841708775297
 21
1031.321603166529
 31
0.0
  0
LINE
  5
46FB
330
18
100
AcDbEntity
  8
A-MTL_GRID
100
AcDbLine
 10
1564.841708775297
 20
1031.321603166529
 30
0.0
 11
1564.654208775297
 21
1031.321603166528
 31
0.0
  0
ARC
  5
46FC
330
18
100
AcDbEntity
  8
A-MTL_GRID
100
AcDbCircle
 10
1564.658115025297
 20
1031.274728166528
 30
0.0
 40
0.0470374788234074
100
AcDbArc
 50
94.76364169072623
 51
265.2363583092738
  0
LINE
  5
46FD
330
18
100
AcDbEntity
  8
A-MTL_GRID
100
AcDbLine
 10
1564.654208775297
 20
1031.227853166528
 30
0.0
 11
1564.841708775296
 21
1031.227853166528
 31
0.0
  0
LINE
  5
46FE
330
18
100
AcDbEntity
  8
A-MTL_GRID
100
AcDbLine
 10
1564.841708775296
 20
1031.227853166528
 30
0.0
 11
1564.841708775296
 21
1031.097564396211
 31
0.0
  0
LINE
  5
46FF
330
18
100
AcDbEntity
  8
A-MTL_GRID
100
AcDbLine
 10
1564.841708775296
 20
1030.962228166528
 30
0.0
 11
1564.841708775297
 21
1030.462228166528
 31
0.0
  0
LINE
  5
4700
330
18
100
AcDbEntity
  8
A-MTL_GRID
100
AcDbLine
 10
1564.841708775297
 20
1030.087228166528
 30
0.0
 11
1564.841708775297
 21
1028.446603166528
 31
0.0
  0
LINE
  5
4701
330
18
100
AcDbEntity
  8
A-MTL_GRID
100
AcDbLine
 10
1564.841708775297
 20
1028.446603166528
 30
0.0
 11
1564.654208775297
 21
1028.446603166528
 31
0.0
  0
ARC
  5
4702
330
18
100
AcDbEntity
  8
A-MTL_GRID
100
AcDbCircle
 10
1564.658115025297
 20
1028.399728166528
 30
0.0
 40
0.0470374788234074
100
AcDbArc
 50
94.76364169072623
 51
265.2363583092738
  0
LINE
  5
4703
330
18
100
AcDbEntity
  8
A-MTL_GRID
100
AcDbLine
 10
1564.654208775297
 20
1028.352853166528
 30
0.0
 11
1564.841708775297
 21
1028.352853166528
 31
0.0
  0
LINE
  5
4704
330
18
100
AcDbEntity
  8
A-MTL_GRID
100
AcDbLine
 10
1564.841708775297
 20
1028.352853166528
 30
0.0
 11
1564.841708775297
 21
1028.222564396211
 31
0.0
  0
LINE
  5
4705
330
18
100
AcDbEntity
  8
A-MTL_GRID
100
AcDbLine
 10
1564.841708775297
 20
1028.087228166528
 30
0.0
 11
1564.841708775297
 21
1027.587228166528
 31
0.0
  0
LWPOLYLINE
  5
4706
330
18
100
AcDbEntity
  8
A-MTL_GRID
100
AcDbPolyline
 90
        5
 70
     0
 43
0.0
 10
1564.841708775297
 20
1027.212228166528
 10
1564.841708775297
 20
1025.571603166529
 10
1564.654208775297
 20
1025.571603166528
 42
0.9201328815660246
 10
1564.654208775297
 20
1025.477853166528
 10
1564.798661661709
 20
1025.477853166528
  0
HATCH
  5
4707
330
18
100
AcDbEntity
  8
A-HATCH
100
AcDbHatch
 10
0.0
 20
0.0
 30
0.0
210
0.0
220
0.0
230
1.0
  2
ANSI31
 70
     0
 71
     1
 91
        1
 92
        1
 93
        4
 72
     1
 10
1564.333567701957
 20
1030.696603166528
 11
1564.333567701957
 21
1028.446603166528
 72
     1
 10
1564.333567701957
 20
1028.446603166528
 11
1564.833567701957
 21
1028.446603166528
 72
     1
 10
1564.833567701957
 20
1028.446603166528
 11
1564.833567701957
 21
1030.696603166528
 72
     1
 10
1564.833567701957
 20
1030.696603166528
 11
1564.333567701957
 21
1030.696603166528
 97
        1
330
4708
 75
     0
 76
     1
 52
0.0
 41
2.0
 77
     0
 78
     1
 53
45.0
 43
1562.716165882233
 44
1023.972701194413
 45
-0.1767766952966369
 46
0.1767766952966369
 79
     0
 98
        1
 10
2.77819151665949
 20
27.71035280443823
1001
ACAD
1010
1561.555376185298
1020
1000.73625036209
1030
0.0
  0
LWPOLYLINE
  5
4708
102
{ACAD_REACTORS
330
4707
102
}
330
18
100
AcDbEntity
  8
A-BRICK
100
AcDbPolyline
 90
        5
 70
     0
 43
0.0
 10
1564.333567701957
 20
1030.696603166528
 10
1564.333567701957
 20
1028.446603166528
 10
1564.833567701957
 20
1028.446603166528
 10
1564.833567701957
 20
1030.696603166528
 10
1564.333567701957
 20
1030.696603166528
  0
HATCH
  5
4709
330
18
100
AcDbEntity
  8
A-HATCH
100
AcDbHatch
 10
0.0
 20
0.0
 30
0.0
210
0.0
220
0.0
230
1.0
  2
ANSI31
 70
     0
 71
     1
 91
        1
 92
        1
 93
        4
 72
     1
 10
1564.333567701956
 20
1033.571603166529
 11
1564.333567701956
 21
1031.321603166529
 72
     1
 10
1564.333567701956
 20
1031.321603166529
 11
1564.833567701956
 21
1031.321603166529
 72
     1
 10
1564.833567701956
 20
1031.321603166529
 11
1564.833567701956
 21
1033.571603166529
 72
     1
 10
1564.833567701956
 20
1033.571603166529
 11
1564.333567701956
 21
1033.571603166529
 97
        1
330
470A
 75
     0
 76
     1
 52
0.0
 41
2.0
 77
     0
 78
     1
 53
45.0
 43
1562.716165882233
 44
1023.972701194413
 45
-0.1767766952966369
 46
0.1767766952966369
 79
     0
 98
        1
 10
2.778191516657671
 20
30.58535280443857
1001
ACAD
1010
1561.555376185298
1020
1000.73625036209
1030
0.0
  0
LWPOLYLINE
  5
470A
102
{ACAD_REACTORS
330
4709
102
}
330
18
100
AcDbEntity
  8
A-BRICK
100
AcDbPolyline
 90
        5
 70
     0
 43
0.0
 10
1564.333567701956
 20
1033.571603166529
 10
1564.333567701956
 20
1031.321603166529
 10
1564.833567701956
 20
1031.321603166529
 10
1564.833567701956
 20
1033.571603166529
 10
1564.333567701956
 20
1033.571603166529
  0
HATCH
  5
4712
330
18
100
AcDbEntity
  8
A-MORTAR
100
AcDbHatch
 10
0.0
 20
0.0
 30
0.0
210
0.0
220
0.0
230
1.0
  2
AR-SAND
 70
     0
 71
     0
 91
        1
 92
        1
 93
        6
 72
     1
 10
1564.841708775297
 20
1028.352853166528
 11
1564.841708775297
 21
1027.821603166528
 72
     1
 10
1564.841708775297
 20
1027.821603166528
 11
1564.333567701958
 21
1027.821603166528
 72
     2
 10
1563.695203711253
 20
1028.134103166528
 40
0.7107494879545938
 50
333.9167438996858
 51
386.0832561004044
 73
     1
 72
     1
 10
1564.333567701957
 20
1028.446603166528
 11
1564.654208775298
 21
1028.446603166528
 72
     2
 10
1564.658115025298
 20
1028.399728166528
 40
0.0470374788234641
 50
94.76364168988665
 51
265.2363583087218
 73
     1
 72
     1
 10
1564.654208775297
 20
1028.352853166528
 11
1564.841708775297
 21
1028.352853166528
 97
        0
 75
     0
 76
     1
 52
0.0
 41
0.1
 77
     0
 78
     4
 53
37.5
 43
1564.333567701957
 44
1027.821603166528
 45
-0.0062993358109608
 46
0.1926823769013159
 79
     6
 49
0.0
 49
-0.152
 49
0.0
 49
-0.17
 49
0.0
 49
-0.1625
 53
7.499999999999999
 43
1564.333567701957
 44
1027.821603166528
 45
0.1769776705267727
 46
0.282214606522974
 79
     6
 49
0.0
 49
-0.082
 49
0.0
 49
-0.137
 49
0.0
 49
-0.0525
 53
327.5
 43
1564.210567701957
 44
1027.821603166528
 45
0.3114141861751495
 46
0.0005659053536964
 79
     6
 49
0.0
 49
-0.05
 49
0.0
 49
-0.18
 49
0.0
 49
-0.235
 53
317.5
 43
1564.210567701957
 44
1027.821603166528
 45
0.3006126604572293
 46
0.0877675564934249
 79
     6
 49
0.0
 49
-0.025
 49
0.0
 49
-0.118
 49
0.0
 49
-0.135
 98
        1
 10
7.504536072093515
 20
23.23645083232316
1001
ACAD
1010
1556.829031629864
1020
1004.585152334205
1030
0.0
  0
LWPOLYLINE
  5
4713
330
18
100
AcDbEntity
  8
A-MORTAR
100
AcDbPolyline
 90
        2
 70
     0
 43
0.0
 10
1564.333567701958
 20
1027.821603166529
 42
0.2316335912014004
 10
1564.333567701957
 20
1028.446603166528
  0
HATCH
  5
4714
330
18
100
AcDbEntity
  8
A-MORTAR
100
AcDbHatch
 10
0.0
 20
0.0
 30
0.0
210
0.0
220
0.0
230
1.0
  2
AR-SAND
 70
     0
 71
     0
 91
        1
 92
        1
 93
        6
 72
     1
 10
1564.841708775297
 20
1031.227853166529
 11
1564.841708775297
 21
1030.696603166529
 72
     1
 10
1564.841708775297
 20
1030.696603166529
 11
1564.333567701958
 21
1030.696603166529
 72
     2
 10
1563.695203711253
 20
1031.009103166528
 40
0.7107494879545938
 50
333.9167438996858
 51
386.0832561004044
 73
     1
 72
     1
 10
1564.333567701957
 20
1031.321603166529
 11
1564.654208775298
 21
1031.321603166529
 72
     2
 10
1564.658115025298
 20
1031.274728166529
 40
0.0470374788234641
 50
94.76364168988665
 51
265.2363583087218
 73
     1
 72
     1
 10
1564.654208775297
 20
1031.227853166529
 11
1564.841708775297
 21
1031.227853166529
 97
        0
 75
     0
 76
     1
 52
0.0
 41
0.1
 77
     0
 78
     4
 53
37.5
 43
1564.333567701957
 44
1030.696603166529
 45
-0.0062993358109608
 46
0.1926823769013159
 79
     6
 49
0.0
 49
-0.152
 49
0.0
 49
-0.17
 49
0.0
 49
-0.1625
 53
7.499999999999999
 43
1564.333567701957
 44
1030.696603166529
 45
0.1769776705267727
 46
0.282214606522974
 79
     6
 49
0.0
 49
-0.082
 49
0.0
 49
-0.137
 49
0.0
 49
-0.0525
 53
327.5
 43
1564.210567701957
 44
1030.696603166529
 45
0.3114141861751495
 46
0.0005659053536964
 79
     6
 49
0.0
 49
-0.05
 49
0.0
 49
-0.18
 49
0.0
 49
-0.235
 53
317.5
 43
1564.210567701957
 44
1030.696603166529
 45
0.3006126604572293
 46
0.0877675564934249
 79
     6
 49
0.0
 49
-0.025
 49
0.0
 49
-0.118
 49
0.0
 49
-0.135
 98
        1
 10
7.504536072093515
 20
26.1114508323235
1001
ACAD
1010
1556.829031629864
1020
1004.585152334205
1030
0.0
  0
LWPOLYLINE
  5
4715
330
18
100
AcDbEntity
  8
A-MORTAR
100
AcDbPolyline
 90
        2
 70
     0
 43
0.0
 10
1564.333567701958
 20
1030.696603166529
 42
0.2316335912014004
 10
1564.333567701957
 20
1031.321603166529
  0
HATCH
  5
4716
330
18
100
AcDbEntity
  8
A-MORTAR
100
AcDbHatch
 10
0.0
 20
0.0
 30
0.0
210
0.0
220
0.0
230
1.0
  2
AR-SAND
 70
     0
 71
     0
 91
        1
 92
        1
 93
        6
 72
     1
 10
1564.841708775297
 20
1034.102853166529
 11
1564.841708775297
 21
1033.571603166529
 72
     1
 10
1564.841708775297
 20
1033.571603166529
 11
1564.333567701958
 21
1033.571603166529
 72
     2
 10
1563.695203711253
 20
1033.884103166528
 40
0.7107494879545938
 50
333.9167438996858
 51
386.0832561004044
 73
     1
 72
     1
 10
1564.333567701957
 20
1034.196603166529
 11
1564.654208775298
 21
1034.196603166529
 72
     2
 10
1564.658115025298
 20
1034.149728166529
 40
0.0470374788234641
 50
94.76364168988665
 51
265.2363583087218
 73
     1
 72
     1
 10
1564.654208775297
 20
1034.102853166529
 11
1564.841708775297
 21
1034.102853166529
 97
        0
 75
     0
 76
     1
 52
0.0
 41
0.1
 77
     0
 78
     4
 53
37.5
 43
1564.333567701957
 44
1033.571603166529
 45
-0.0062993358109608
 46
0.1926823769013159
 79
     6
 49
0.0
 49
-0.152
 49
0.0
 49
-0.17
 49
0.0
 49
-0.1625
 53
7.499999999999999
 43
1564.333567701957
 44
1033.571603166529
 45
0.1769776705267727
 46
0.282214606522974
 79
     6
 49
0.0
 49
-0.082
 49
0.0
 49
-0.137
 49
0.0
 49
-0.0525
 53
327.5
 43
1564.210567701957
 44
1033.571603166529
 45
0.3114141861751495
 46
0.0005659053536964
 79
     6
 49
0.0
 49
-0.05
 49
0.0
 49
-0.18
 49
0.0
 49
-0.235
 53
317.5
 43
1564.210567701957
 44
1033.571603166529
 45
0.3006126604572293
 46
0.0877675564934249
 79
     6
 49
0.0
 49
-0.025
 49
0.0
 49
-0.118
 49
0.0
 49
-0.135
 98
        1
 10
7.504536072093515
 20
28.98645083232327
1001
ACAD
1010
1556.829031629864
1020
1004.585152334205
1030
0.0
  0
LWPOLYLINE
  5
4717
330
18
100
AcDbEntity
  8
A-MORTAR
100
AcDbPolyline
 90
        2
 70
     0
 43
0.0
 10
1564.333567701958
 20
1033.571603166529
 42
0.2316335912014004
 10
1564.333567701957
 20
1034.196603166529
  0
LINE
  5
4718
330
18
100
AcDbEntity
  8
A-BACKING
100
AcDbLine
 10
1565.091708775297
 20
1034.948183818986
 30
0.0
 11
1565.091708775297
 21
1025.60285316653
 31
0.0
  0
LINE
  5
4719
330
18
100
AcDbEntity
  8
A-BRICK
100
AcDbLine
 10
1565.241708775297
 20
1034.948183818986
 30
0.0
 11
1565.241708775297
 21
1025.977853166528
 31
0.0
  0
LWPOLYLINE
  5
4756
330
18
100
AcDbEntity
  8
A-MTL_GRID
100
AcDbPolyline
 90
        4
 70
     1
 43
0.0
 10
1564.851335722849
 20
1033.337228166528
 10
1564.833567701956
 20
1033.337228166528
 10
1564.833567701956
 20
1032.962228166528
 10
1564.851335722849
 20
1032.962228166528
  0
LWPOLYLINE
  5
4757
330
18
100
AcDbEntity
  8
A-MTL_GRID
100
AcDbPolyline
 90
        4
 70
     1
 43
0.0
 10
1564.851335722849
 20
1030.462228166528
 10
1564.833567701956
 20
1030.462228166528
 10
1564.833567701956
 20
1030.087228166528
 10
1564.851335722849
 20
1030.087228166528
  0
LWPOLYLINE
  5
4758
330
18
100
AcDbEntity
  8
A-MTL_GRID
100
AcDbPolyline
 90
        4
 70
     1
 43
0.0
 10
1564.851335722849
 20
1027.587228166528
 10
1564.833567701956
 20
1027.587228166528
 10
1564.833567701956
 20
1027.212228166528
 10
1564.851335722849
 20
1027.212228166528
  0
LWPOLYLINE
  5
475A
330
18
100
AcDbEntity
  8
A-MTL_GRID
100
AcDbPolyline
 90
        5
 70
     0
 43
0.0
 10
1564.841708775297
 20
1033.837228166528
 10
1564.841112681426
 20
1033.841316578583
 42
0.2963606241459967
 10
1564.811657710128
 20
1033.874831701398
 42
-0.3172475355618613
 10
1564.750232660408
 20
1033.950352395294
 10
1564.750232660408
 20
1033.972564396211
  0
LWPOLYLINE
  5
475B
330
18
100
AcDbEntity
  8
A-MTL_GRID
100
AcDbPolyline
 90
        5
 70
     0
 43
0.0
 10
1564.841708775297
 20
1030.962228166528
 10
1564.841112681426
 20
1030.966316578582
 42
0.2963606241459967
 10
1564.811657710128
 20
1030.999831701398
 42
-0.3172475355618613
 10
1564.750232660408
 20
1031.075352395294
 10
1564.750232660408
 20
1031.097564396212
  0
LWPOLYLINE
  5
475C
330
18
100
AcDbEntity
  8
A-MTL_GRID
100
AcDbPolyline
 90
        5
 70
     0
 43
0.0
 10
1564.841708775297
 20
1028.087228166528
 10
1564.841112681426
 20
1028.091316578582
 42
0.2963606241459967
 10
1564.811657710128
 20
1028.124831701398
 42
-0.3172475355618613
 10
1564.750232660408
 20
1028.200352395294
 10
1564.750232660408
 20
1028.222564396212
  0
HATCH
  5
475D
330
18
100
AcDbEntity
  8
A-HATCH
100
AcDbHatch
 10
0.0
 20
0.0
 30
0.0
210
0.0
220
0.0
230
1.0
  2
ANSI31
 70
     0
 71
     0
 91
        1
 92
        5
 93
        4
 72
     1
 10
1564.833567701957
 20
1034.948183818985
 11
1564.333567701957
 21
1034.948183818985
 72
     1
 10
1564.333567701957
 20
1034.948183818985
 11
1564.333567701957
 21
1034.196603166529
 72
     1
 10
1564.333567701957
 20
1034.196603166529
 11
1564.833567701957
 21
1034.196603166529
 72
     1
 10
1564.833567701957
 20
1034.196603166529
 11
1564.833567701957
 21
1034.948183818984
 97
        0
 75
     0
 76
     1
 52
0.0
 41
2.0
 77
     0
 78
     1
 53
45.0
 43
1562.716165882233
 44
1032.597701194413
 45
-0.1767766952966369
 46
0.1767766952966369
 79
     0
 47
0.0
 98
        1
 10
1564.583567701957
 20
1034.572393492757
1001
ACAD
1010
1561.555376185298
1020
1000.73625036209
1030
0.0
  0
LWPOLYLINE
  5
475E
330
18
100
AcDbEntity
  8
A-BRICK
100
AcDbPolyline
 90
        4
 70
     0
 43
0.0
 10
1564.333567701957
 20
1034.948183818985
 10
1564.333567701957
 20
1034.196603166529
 10
1564.833567701957
 20
1034.196603166529
 10
1564.833567701957
 20
1034.948183818985
  0
LWPOLYLINE
  5
476E
330
18
100
AcDbEntity
  8
A-MTL_GRID
100
AcDbPolyline
 90
        5
 70
     0
 43
0.0
 10
1564.841708775297
 20
1034.948183818985
 10
1564.841708775297
 20
1034.196603166529
 10
1564.654208775297
 20
1034.196603166529
 42
0.9201328815660246
 10
1564.654208775297
 20
1034.102853166529
 10
1564.798661661709
 20
1034.102853166529
  0
LINE
  5
4846
330
18
100
AcDbEntity
  8
A-BACKING
100
AcDbLine
 10
1565.091708775297
 20
1025.60285316653
 30
0.0
 11
1565.166708775297
 21
1025.602853166529
 31
0.0
  0
LWPOLYLINE
  5
4850
330
18
100
AcDbEntity
  8
A-MORTAR
100
AcDbPolyline
 90
        4
 70
     1
 43
0.0
 10
1567.241708775297
 20
1023.977853166528
 10
1569.241708775297
 20
1023.977853166528
 10
1569.241708775297
 20
1025.977853166528
 10
1567.241708775297
 20
1025.977853166528
  0
LINE
  5
4851
330
18
100
AcDbEntity
  8
A-MORTAR
100
AcDbLine
 10
1569.241708775297
 20
1023.977853166528
 30
0.0
 11
1569.241708775297
 21
1021.438974185212
 31
0.0
  0
LINE
  5
4852
330
18
100
AcDbEntity
  8
A-MORTAR
100
AcDbLine
 10
1567.241708775297
 20
1023.977853166528
 30
0.0
 11
1567.241708775297
 21
1021.438974185212
 31
0.0
  0
LINE
  5
4853
330
18
100
AcDbEntity
  8
A-MORTAR
100
AcDbLine
 10
1568.241708775297
 20
1023.977853166528
 30
0.0
 11
1568.241708775297
 21
1021.438974185212
 31
0.0
  0
LWPOLYLINE
  5
4854
330
18
100
AcDbEntity
  8
A-NOTE
100
AcDbPolyline
 90
        8
 70
     0
 43
0.0
 10
1563.228544393142
 20
1021.438974185212
 10
1566.571803201099
 20
1021.438974185212
 10
1566.571803201099
 20
1021.352993948497
 42
0.7512150810959911
 10
1566.664046561612
 20
1021.326245144925
 10
1566.806808260437
 20
1021.551703225498
 42
-0.7512150810961321
 10
1566.89905162095
 20
1021.524954421926
 10
1566.89905162095
 20
1021.438974185212
 10
1569.816651468591
 20
1021.438974185212
  0
LINE
  5
4855
330
18
100
AcDbEntity
  8
A-MORTAR
100
AcDbLine
 10
1564.333567701957
 20
1025.571603166529
 30
0.0
 11
1564.333567701957
 21
1021.438974185212
 31
0.0
  0
LINE
  5
485A
330
18
100
AcDbEntity
  8
A-BACKING
100
AcDbLine
 10
1565.166708775297
 20
1034.948183818985
 30
0.0
 11
1565.166708775297
 21
1025.602853166528
 31
0.0
  0
LINE
  5
485B
330
18
100
AcDbEntity
  8
A-BACKING
100
AcDbLine
 10
1565.205485515569
 20
1025.902853166528
 30
0.0
 11
1565.205485515569
 21
1028.477853166528
 31
0.0
  0
LINE
  5
485C
330
18
100
AcDbEntity
  8
A-BACKING
100
AcDbLine
 10
1565.205485515569
 20
1025.902853166528
 30
0.0
 11
1566.866708775297
 21
1025.902853166529
 31
0.0
  0
LINE
  5
485D
330
18
100
AcDbEntity
  8
A-BRICK
100
AcDbLine
 10
1565.241708775297
 20
1025.977853166528
 30
0.0
 11
1571.277377659357
 21
1025.977853166528
 31
0.0
  0
LWPOLYLINE
  5
485F
330
18
100
AcDbEntity
  8
A-NOTE
100
AcDbPolyline
 90
        8
 70
     0
 43
0.0
 10
1563.254518416803
 20
1034.948183818985
 10
1566.597777224759
 20
1034.948183818985
 10
1566.597777224759
 20
1034.862203582269
 42
0.7512150810959911
 10
1566.690020585273
 20
1034.835454778697
 10
1566.832782284097
 20
1035.060912859271
 42
-0.7512150810961321
 10
1566.925025644611
 20
1035.034164055699
 10
1566.925025644611
 20
1034.948183818984
 10
1569.842625492252
 20
1034.948183818985
  0
DIMENSION
  5
4861
330
18
100
AcDbEntity
  8
A-NOTE
100
AcDbDimension
  2
*D1
 10
1565.895905700051
 20
1025.477853166528
 30
0.0
 11
1566.401892463955
 21
1024.775196431401
 31
0.0
 70
   160
  1
<> OVERLAP
  3
DIM-2
100
AcDbAlignedDimension
 13
1565.421829729652
 23
1025.977853166528
 33
0.0
 14
1565.286245692035
 24
1025.477853166528
 34
0.0
 50
90.0
100
AcDbRotatedDimension
  0
MTEXT
  5
48D1
330
18
100
AcDbEntity
  8
A-NOTE
100
AcDbMText
 10
1566.395467633411
 20
1031.897920550015
 30
0.0
 40
0.25
 41
2.547618775369983
 71
     1
 72
     5
  1
MOISTURE BARRIER
  7
ROMANS
  0
LEADER
  5
48D2
330
18
100
AcDbEntity
  8
A-NOTE
100
AcDbLeader
  3
DIM-1
 76
     3
 10
1565.166708775297
 20
1030.802893207057
 30
0.0
 10
1565.980126553554
 20
1031.360597925473
 30
0.0
 10
1566.269571928886
 20
1031.360597925473
 30
0.0
 77
   256
1001
ACAD
1000
DSTYLE
1002
{
1070
     6
1000

1070
    77
1070
     0
1070
   147
1040
0.0625
1070
   341
1005
0
1002
}
  0
MTEXT
  5
48DE
330
18
100
AcDbEntity
  8
A-NOTE
100
AcDbMText
 10
1562.526736620067
 20
1033.073822509645
 30
0.0
 40
0.25
 41
3.229579997254859
 71
     3
 72
     5
  1
\A1;1/2" THICK \PREAL BRICK
  7
ROMANS
  0
LEADER
  5
48DF
330
18
100
AcDbEntity
  8
A-NOTE
100
AcDbLeader
  3
DIM-1
 76
     3
 10
1564.330431370975
 20
1032.89435516463
 30
0.0
 10
1563.141805070125
 20
1032.89435516463
 30
0.0
 10
1562.724493646049
 20
1032.89435516463
 30
0.0
 77
   256
1001
ACAD
1000
DSTYLE
1002
{
1070
     6
1000

1070
    77
1070
     0
1070
   147
1040
0.0625
1070
   341
1005
0
1002
}
  0
MTEXT
  5
48E0
330
18
100
AcDbEntity
  8
A-NOTE
100
AcDbMText
 10
1562.526736620067
 20
1034.028118759318
 30
0.0
 40
0.25
 41
3.229579997254859
 71
     3
 72
     5
  1
\A1;BRICK-IT MORTAR
  7
ROMANS
  0
LEADER
  5
48E1
330
18
100
AcDbEntity
  8
A-NOTE
100
AcDbLeader
  3
DIM-1
 76
     3
 10
1564.405528397237
 20
1033.882771282267
 30
0.0
 10
1563.623609229606
 20
1033.882771282267
 30
0.0
 10
1562.724493646049
 20
1033.882771282268
 30
0.0
 77
   256
1001
ACAD
1000
DSTYLE
1002
{
1070
     6
1000

1070
    77
1070
     0
1070
   147
1040
0.0625
1070
   341
1005
0
1002
}
  0
MTEXT
  5
48E2
330
18
100
AcDbEntity
  8
A-NOTE
100
AcDbMText
 10
1566.395467633411
 20
1033.233424190621
 30
0.0
 40
0.25
 41
2.547618775369983
 71
     1
 72
     5
  1
WEEP SYSTEM \P(OPTIONAL)-PVC
  7
ROMANS
  0
LEADER
  5
48E3
330
18
100
AcDbEntity
  8
A-NOTE
100
AcDbLeader
  3
DIM-1
 76
     3
 10
1564.973675262696
 20
1031.873950851102
 30
0.0
 10
1565.732947272011
 20
1032.641179299172
 30
0.0
 10
1566.269571928886
 20
1032.641179299172
 30
0.0
 77
   256
211
-1.0
221
0.0
231
0.0
1001
ACAD
1000
DSTYLE
1002
{
1070
     6
1000

1070
    77
1070
     0
1070
   147
1040
0.0625
1070
   341
1005
0
1002
}
  0
MTEXT
  5
48F9
330
18
100
AcDbEntity
  8
A-NOTE
100
AcDbMText
 10
1569.300995044638
 20
1026.871894686046
 30
0.0
 40
0.25
 41
2.547618775369983
 71
     1
 72
     5
  1
GLASS MULLION
  7
ROMANS
  0
LEADER
  5
48FA
330
18
100
AcDbEntity
  8
A-NOTE
100
AcDbLeader
  3
DIM-1
 76
     3
 10
1567.962332920501
 20
1025.53546906717
 30
0.0
 10
1568.525661998277
 20
1026.724309557944
 30
0.0
 10
1569.169246209475
 20
1026.724309557944
 30
0.0
 77
   256
1001
ACAD
1000
DSTYLE
1002
{
1070
     6
1000

1070
    77
1070
     0
1070
   147
1040
0.0625
1070
   341
1005
0
1002
}
  0
MTEXT
  5
48FB
330
18
100
AcDbEntity
  8
A-NOTE
100
AcDbMText
 10
1562.526736620067
 20
1027.244410325247
 30
0.0
 40
0.25
 41
3.229579997254859
 71
     3
 72
     5
  1
ALUMINUM CAP TO OVERLAP
  7
ROMANS
  0
ARC
  5
4945
330
18
100
AcDbEntity
  8
A-BACKING
100
AcDbCircle
 10
1567.110053728175
 20
1025.920440268058
 30
0.0
 40
0.2439796553639866
100
AcDbArc
 50
166.389608797677
 51
302.6574244209512
  0
HATCH
  5
494B
330
18
100
AcDbEntity
  8
A-BACKING
100
AcDbHatch
 10
0.0
 20
0.0
 30
0.0
210
0.0
220
0.0
230
1.0
  2
ANSI31
 70
     0
 71
     0
 91
        1
 92
        7
 72
     1
 73
     1
 93
        3
 10
1567.241708775297
 20
1025.977853166528
 42
0.0
 10
1566.872925426784
 20
1025.977853166528
 42
0.6762100778575568
 10
1567.241708775297
 20
1025.715030870028
 42
0.0
 97
        0
 75
     0
 76
     1
 52
180.0
 41
0.25
 77
     0
 78
     1
 53
225.0
 43
1566.866074072811
 44
1025.676460612694
 45
0.0220970869120796
 46
-0.0220970869120796
 79
     0
 47
0.0024227905407242
 98
        1
 10
1567.089110643162
 20
1025.83312623916
1001
ACAD
1010
1566.866074072811
1020
1016.779852082152
1030
0.0
  0
MTEXT
  5
494C
330
18
100
AcDbEntity
  8
A-NOTE
100
AcDbMText
 10
1569.300995044638
 20
1027.631071208895
 30
0.0
 40
0.25
 41
3.442940713907092
 71
     1
 72
     5
  1
\A1;CAULK JOINT MAX {\H0.7x;\S3/8;}"
  7
ROMANS
  0
LEADER
  5
494D
330
18
100
AcDbEntity
  8
A-NOTE
100
AcDbLeader
  3
DIM-1
 76
     3
 10
1567.079078278997
 20
1025.977853166528
 30
0.0
 10
1567.845248873921
 20
1027.426835437805
 30
0.0
 10
1569.169246209475
 20
1027.426835437805
 30
0.0
 77
   256
1001
ACAD
1000
DSTYLE
1002
{
1070
     6
1000

1070
    77
1070
     0
1070
   147
1040
0.0625
1070
   341
1005
0
1002
}
  0
DIMENSION
  5
494E
330
18
100
AcDbEntity
  8
A-NOTE
100
AcDbDimension
  2
*D2
 10
1565.895905700051
 20
1028.477853166528
 30
0.0
 11
1566.401892463955
 21
1027.745833878598
 31
0.0
 70
   160
  1
<> MIN OVERLAP
  3
DIM-2
100
AcDbAlignedDimension
 13
1565.421829729652
 23
1025.977853166528
 33
0.0
 14
1565.286245692035
 24
1028.477853166528
 34
0.0
 50
270.0
100
AcDbRotatedDimension
  0
LEADER
  5
4980
330
18
100
AcDbEntity
  8
A-NOTE
100
AcDbLeader
  3
DIM-1
 76
     3
 10
1565.205485515569
 20
1027.130235253062
 30
0.0
 10
1563.3885619833
 20
1027.130235253062
 30
0.0
 10
1562.705460851652
 20
1027.130235253062
 30
0.0
 77
   256
1001
ACAD
1000
DSTYLE
1002
{
1070
     6
1000

1070
    77
1070
     0
1070
   147
1040
0.0625
1070
   341
1005
0
1002
}
  0
HATCH
  5
4989
330
18
100
AcDbEntity
  8
A-BACKING
100
AcDbHatch
 10
0.0
 20
0.0
 30
0.0
210
0.0
220
0.0
230
1.0
  2
ANSI31
 70
     0
 71
     0
 91
        1
 92
        7
 72
     0
 73
     1
 93
        4
 10
1565.166708775297
 20
1034.948183818985
 10
1565.091708775297
 20
1034.948183818985
 10
1565.091708775297
 20
1025.602853166529
 10
1565.166708775297
 20
1025.602853166529
 97
        0
 75
     0
 76
     1
 52
90.0
 41
1.0
 77
     0
 78
     1
 53
135.0
 43
1565.091708775297
 44
1025.602853166529
 45
-0.0883883476483184
 46
-0.0883883476483184
 79
     0
 47
0.006942930741535
 98
        1
 10
1565.115957909122
 20
1026.059671325031
1001
ACAD
1010
1565.197082348599
1020
1003.365996869635
1030
0.0
  0
MTEXT
  5
49B2
330
18
100
AcDbEntity
  8
A-NOTE
100
AcDbMText
 10
1562.526736620067
 20
1031.072784324595
 30
0.0
 40
0.25
 41
3.229579997254859
 71
     3
 72
     5
  1
\A1;PATENTED METAL GRID PANEL
  7
ROMANS
  0
LEADER
  5
49B3
330
18
100
AcDbEntity
  8
A-NOTE
100
AcDbLeader
  3
DIM-1
 76
     3
 10
1564.833908438152
 20
1030.936838062695
 30
0.0
 10
1563.192013894425
 20
1030.936838062695
 30
0.0
 10
1562.724493646049
 20
1030.936838062695
 30
0.0
 77
   256
1001
ACAD
1000
DSTYLE
1002
{
1070
     6
1000

1070
    77
1070
     0
1070
   147
1040
0.0625
1070
   341
1005
0
1002
}
  0
LINE
  5
49B7
330
18
100
AcDbEntity
  8
A-BRICK
100
AcDbLine
 10
1567.022350702838
 20
1006.781212333826
 30
0.0
 11
1571.277377659357
 21
1006.781212333825
 31
0.0
  0
LINE
  5
49BA
330
18
100
AcDbEntity
  8
A-MORTAR
100
AcDbLine
 10
1569.121912784725
 20
1008.781212333825
 30
0.0
 11
1569.121912784725
 21
1011.379144296784
 31
0.0
  0
LINE
  5
49BB
330
18
100
AcDbEntity
  8
A-MORTAR
100
AcDbLine
 10
1567.121912784725
 20
1008.781212333825
 30
0.0
 11
1567.121912784725
 21
1011.379144296785
 31
0.0
  0
LINE
  5
49BC
330
18
100
AcDbEntity
  8
A-MORTAR
100
AcDbLine
 10
1568.121912784725
 20
1008.781212333825
 30
0.0
 11
1568.121912784725
 21
1011.379144296785
 31
0.0
  0
LINE
  5
49BE
330
18
100
AcDbEntity
  8
A-MORTAR
100
AcDbLine
 10
1564.333567701957
 20
1005.903237678438
 30
0.0
 11
1564.333567701957
 21
1011.379144296784
 31
0.0
  0
MTEXT
  5
49BF
330
18
100
AcDbEntity
  8
A-NOTE
100
AcDbMText
 10
1569.300995044638
 20
1005.887170814308
 30
0.0
 40
0.25
 41
4.250723331968629
 71
     7
 72
     5
  1
WINDOW FRAME
  7
ROMANS
  0
LEADER
  5
49C0
330
18
100
AcDbEntity
  8
A-NOTE
100
AcDbLeader
  3
DIM-1
 76
     3
 10
1568.329113884567
 20
1007.387868439426
 30
0.0
 10
1568.525661998277
 20
1006.034755942409
 30
0.0
 10
1569.169246209475
 20
1006.034755942409
 30
0.0
 77
   256
1001
ACAD
1000
DSTYLE
1002
{
1070
     6
1000

1070
    77
1070
     0
1070
   147
1040
0.0625
1070
   341
1005
0
1002
}
  0
LWPOLYLINE
  5
49C4
330
18
100
AcDbEntity
  8
A-NOTE
100
AcDbPolyline
 90
        8
 70
     0
 43
0.0
 10
1563.228544393142
 20
1011.379144296784
 10
1566.571803201099
 20
1011.379144296784
 10
1566.571803201099
 20
1011.293164060069
 42
0.7512150810959911
 10
1566.664046561612
 20
1011.266415256497
 10
1566.806808260437
 20
1011.491873337071
 42
-0.7512150810961321
 10
1566.89905162095
 20
1011.465124533499
 10
1566.89905162095
 20
1011.379144296784
 10
1569.816651468591
 20
1011.379144296784
  0
LWPOLYLINE
  5
49C6
330
18
100
AcDbEntity
  8
A-BRICK
100
AcDbPolyline
 90
        2
 70
     0
 43
0.0
 10
1564.333567701958
 20
999.9386912334109
 10
1564.333567701958
 20
998.4937594355537
  0
LINE
  5
49C7
330
18
100
AcDbEntity
  8
A-MTL_GRID
100
AcDbLine
 10
1564.658115025297
 20
1005.764251558528
 30
0.0
 11
1564.841708775297
 21
1005.764251558528
 31
0.0
  0
LINE
  5
49C9
330
18
100
AcDbEntity
  8
A-MTL_GRID
100
AcDbLine
 10
1564.841708775297
 20
1005.764251558528
 30
0.0
 11
1564.841708775297
 21
1005.45431623341
 31
0.0
  0
LINE
  5
49CA
330
18
100
AcDbEntity
  8
A-MTL_GRID
100
AcDbLine
 10
1564.841708775297
 20
1005.079316233411
 30
0.0
 11
1564.841708775297
 21
1003.438691233411
 31
0.0
  0
LINE
  5
49CB
330
18
100
AcDbEntity
  8
A-MTL_GRID
100
AcDbLine
 10
1564.841708775297
 20
1003.438691233411
 30
0.0
 11
1564.654208775297
 21
1003.438691233411
 31
0.0
  0
ARC
  5
49CC
330
18
100
AcDbEntity
  8
A-MTL_GRID
100
AcDbCircle
 10
1564.658115025297
 20
1003.391816233411
 30
0.0
 40
0.0470374788234074
100
AcDbArc
 50
94.76364169072623
 51
265.2363583092738
  0
LINE
  5
49CD
330
18
100
AcDbEntity
  8
A-MTL_GRID
100
AcDbLine
 10
1564.654208775297
 20
1003.344941233411
 30
0.0
 11
1564.841708775297
 21
1003.344941233411
 31
0.0
  0
LINE
  5
49CE
330
18
100
AcDbEntity
  8
A-MTL_GRID
100
AcDbLine
 10
1564.841708775297
 20
1003.344941233411
 30
0.0
 11
1564.841708775297
 21
1003.214652463094
 31
0.0
  0
LINE
  5
49CF
330
18
100
AcDbEntity
  8
A-MTL_GRID
100
AcDbLine
 10
1564.841708775297
 20
1003.079316233411
 30
0.0
 11
1564.841708775297
 21
1002.579316233411
 31
0.0
  0
LINE
  5
49D0
330
18
100
AcDbEntity
  8
A-MTL_GRID
100
AcDbLine
 10
1564.841708775297
 20
1002.204316233411
 30
0.0
 11
1564.841708775297
 21
1000.563691233411
 31
0.0
  0
LINE
  5
49D1
330
18
100
AcDbEntity
  8
A-MTL_GRID
100
AcDbLine
 10
1564.841708775297
 20
1000.563691233411
 30
0.0
 11
1564.654208775297
 21
1000.563691233411
 31
0.0
  0
ARC
  5
49D2
330
18
100
AcDbEntity
  8
A-MTL_GRID
100
AcDbCircle
 10
1564.658115025297
 20
1000.516816233411
 30
0.0
 40
0.0470374788234074
100
AcDbArc
 50
94.76364169072623
 51
265.2363583092738
  0
LINE
  5
49D3
330
18
100
AcDbEntity
  8
A-MTL_GRID
100
AcDbLine
 10
1564.654208775297
 20
1000.469941233411
 30
0.0
 11
1564.841708775297
 21
1000.469941233411
 31
0.0
  0
LINE
  5
49D4
330
18
100
AcDbEntity
  8
A-MTL_GRID
100
AcDbLine
 10
1564.841708775297
 20
1000.469941233411
 30
0.0
 11
1564.841708775297
 21
1000.339652463094
 31
0.0
  0
LINE
  5
49D5
330
18
100
AcDbEntity
  8
A-MTL_GRID
100
AcDbLine
 10
1564.841708775297
 20
1000.204316233411
 30
0.0
 11
1564.841708775297
 21
999.7043162334106
 31
0.0
  0
LWPOLYLINE
  5
49D6
330
18
100
AcDbEntity
  8
A-MTL_GRID
100
AcDbPolyline
 90
        2
 70
     0
 43
0.0
 10
1564.841708775297
 20
999.3293162334106
 10
1564.841708775297
 20
998.4937594355537
  0
HATCH
  5
49D7
330
18
100
AcDbEntity
  8
A-HATCH
100
AcDbHatch
 10
0.0
 20
0.0
 30
0.0
210
0.0
220
0.0
230
1.0
  2
ANSI31
 70
     0
 71
     1
 91
        1
 92
        1
 93
        4
 72
     1
 10
1564.333567701958
 20
1002.813691233411
 11
1564.333567701958
 21
1000.563691233411
 72
     1
 10
1564.333567701958
 20
1000.563691233411
 11
1564.833567701958
 21
1000.563691233411
 72
     1
 10
1564.833567701958
 20
1000.563691233411
 11
1564.833567701958
 21
1002.813691233411
 72
     1
 10
1564.833567701958
 20
1002.813691233411
 11
1564.333567701958
 21
1002.813691233411
 97
        1
330
49D8
 75
     0
 76
     1
 52
0.0
 41
2.0
 77
     0
 78
     1
 53
45.0
 43
1562.716165882234
 44
996.0897892612957
 45
-0.1767766952966369
 46
0.1767766952966369
 79
     0
 98
        1
 10
2.778191516659945
 20
-0.1725591286794952
1001
ACAD
1010
1561.555376185298
1020
1000.73625036209
1030
0.0
  0
LWPOLYLINE
  5
49D8
102
{ACAD_REACTORS
330
49D7
102
}
330
18
100
AcDbEntity
  8
A-BRICK
100
AcDbPolyline
 90
        5
 70
     0
 43
0.0
 10
1564.333567701958
 20
1002.813691233411
 10
1564.333567701958
 20
1000.563691233411
 10
1564.833567701958
 20
1000.563691233411
 10
1564.833567701958
 20
1002.813691233411
 10
1564.333567701958
 20
1002.813691233411
  0
HATCH
  5
49D9
330
18
100
AcDbEntity
  8
A-HATCH
100
AcDbHatch
 10
0.0
 20
0.0
 30
0.0
210
0.0
220
0.0
230
1.0
  2
ANSI31
 70
     0
 71
     1
 91
        1
 92
        1
 93
        4
 72
     1
 10
1564.333567701956
 20
1005.688691233411
 11
1564.333567701956
 21
1003.438691233411
 72
     1
 10
1564.333567701956
 20
1003.438691233411
 11
1564.833567701956
 21
1003.438691233411
 72
     1
 10
1564.833567701956
 20
1003.438691233411
 11
1564.833567701956
 21
1005.688691233411
 72
     1
 10
1564.833567701956
 20
1005.688691233411
 11
1564.333567701956
 21
1005.688691233411
 97
        1
330
49DA
 75
     0
 76
     1
 52
0.0
 41
2.0
 77
     0
 78
     1
 53
45.0
 43
1562.716165882234
 44
996.0897892612957
 45
-0.1767766952966369
 46
0.1767766952966369
 79
     0
 98
        1
 10
2.778191516658126
 20
2.702440871320846
1001
ACAD
1010
1561.555376185298
1020
1000.73625036209
1030
0.0
  0
LWPOLYLINE
  5
49DA
102
{ACAD_REACTORS
330
49D9
102
}
330
18
100
AcDbEntity
  8
A-BRICK
100
AcDbPolyline
 90
        5
 70
     0
 43
0.0
 10
1564.333567701956
 20
1005.688691233411
 10
1564.333567701956
 20
1003.438691233411
 10
1564.833567701956
 20
1003.438691233411
 10
1564.833567701956
 20
1005.688691233411
 10
1564.333567701956
 20
1005.688691233411
  0
HATCH
  5
49DB
330
18
100
AcDbEntity
  8
A-MORTAR
100
AcDbHatch
 10
0.0
 20
0.0
 30
0.0
210
0.0
220
0.0
230
1.0
  2
AR-SAND
 70
     0
 71
     0
 91
        1
 92
        1
 93
        6
 72
     1
 10
1564.841708775298
 20
1000.469941233411
 11
1564.841708775297
 21
999.9386912334107
 72
     1
 10
1564.841708775297
 20
999.9386912334107
 11
1564.333567701958
 21
999.9386912334109
 72
     2
 10
1563.695203711254
 20
1000.25119123341
 40
0.7107494879545938
 50
333.9167438996858
 51
386.0832561004044
 73
     1
 72
     1
 10
1564.333567701958
 20
1000.563691233411
 11
1564.654208775299
 21
1000.563691233411
 72
     2
 10
1564.658115025298
 20
1000.516816233411
 40
0.0470374788234641
 50
94.76364168988665
 51
265.2363583087218
 73
     1
 72
     1
 10
1564.654208775298
 20
1000.469941233411
 11
1564.841708775298
 21
1000.469941233411
 97
        0
 75
     0
 76
     1
 52
0.0
 41
0.1
 77
     0
 78
     4
 53
37.5
 43
1564.333567701958
 44
999.9386912334107
 45
-0.0062993358109608
 46
0.1926823769013159
 79
     6
 49
0.0
 49
-0.152
 49
0.0
 49
-0.17
 49
0.0
 49
-0.1625
 53
7.499999999999999
 43
1564.333567701958
 44
999.9386912334107
 45
0.1769776705267727
 46
0.282214606522974
 79
     6
 49
0.0
 49
-0.082
 49
0.0
 49
-0.137
 49
0.0
 49
-0.0525
 53
327.5
 43
1564.210567701958
 44
999.9386912334107
 45
0.3114141861751495
 46
0.0005659053536964
 79
     6
 49
0.0
 49
-0.05
 49
0.0
 49
-0.18
 49
0.0
 49
-0.235
 53
317.5
 43
1564.210567701958
 44
999.9386912334107
 45
0.3006126604572293
 46
0.0877675564934249
 79
     6
 49
0.0
 49
-0.025
 49
0.0
 49
-0.118
 49
0.0
 49
-0.135
 98
        1
 10
7.50453607209397
 20
-4.646461100794568
1001
ACAD
1010
1556.829031629864
1020
1004.585152334205
1030
0.0
  0
LWPOLYLINE
  5
49DC
330
18
100
AcDbEntity
  8
A-MORTAR
100
AcDbPolyline
 90
        2
 70
     0
 43
0.0
 10
1564.333567701958
 20
999.9386912334109
 42
0.2316335912014004
 10
1564.333567701958
 20
1000.563691233411
  0
HATCH
  5
49DD
330
18
100
AcDbEntity
  8
A-MORTAR
100
AcDbHatch
 10
0.0
 20
0.0
 30
0.0
210
0.0
220
0.0
230
1.0
  2
AR-SAND
 70
     0
 71
     0
 91
        1
 92
        1
 93
        6
 72
     1
 10
1564.841708775298
 20
1003.344941233411
 11
1564.841708775297
 21
1002.813691233411
 72
     1
 10
1564.841708775297
 20
1002.813691233411
 11
1564.333567701958
 21
1002.813691233411
 72
     2
 10
1563.695203711254
 20
1003.126191233411
 40
0.7107494879545938
 50
333.9167438996858
 51
386.0832561004044
 73
     1
 72
     1
 10
1564.333567701958
 20
1003.438691233411
 11
1564.654208775299
 21
1003.438691233411
 72
     2
 10
1564.658115025298
 20
1003.391816233411
 40
0.0470374788234641
 50
94.76364168988665
 51
265.2363583087218
 73
     1
 72
     1
 10
1564.654208775298
 20
1003.344941233411
 11
1564.841708775298
 21
1003.344941233411
 97
        0
 75
     0
 76
     1
 52
0.0
 41
0.1
 77
     0
 78
     4
 53
37.5
 43
1564.333567701958
 44
1002.813691233411
 45
-0.0062993358109608
 46
0.1926823769013159
 79
     6
 49
0.0
 49
-0.152
 49
0.0
 49
-0.17
 49
0.0
 49
-0.1625
 53
7.499999999999999
 43
1564.333567701958
 44
1002.813691233411
 45
0.1769776705267727
 46
0.282214606522974
 79
     6
 49
0.0
 49
-0.082
 49
0.0
 49
-0.137
 49
0.0
 49
-0.0525
 53
327.5
 43
1564.210567701958
 44
1002.813691233411
 45
0.3114141861751495
 46
0.0005659053536964
 79
     6
 49
0.0
 49
-0.05
 49
0.0
 49
-0.18
 49
0.0
 49
-0.235
 53
317.5
 43
1564.210567701958
 44
1002.813691233411
 45
0.3006126604572293
 46
0.0877675564934249
 79
     6
 49
0.0
 49
-0.025
 49
0.0
 49
-0.118
 49
0.0
 49
-0.135
 98
        1
 10
7.50453607209397
 20
-1.771461100794227
1001
ACAD
1010
1556.829031629864
1020
1004.585152334205
1030
0.0
  0
LWPOLYLINE
  5
49DE
330
18
100
AcDbEntity
  8
A-MORTAR
100
AcDbPolyline
 90
        2
 70
     0
 43
0.0
 10
1564.333567701958
 20
1002.813691233411
 42
0.2316335912014004
 10
1564.333567701958
 20
1003.438691233411
  0
LWPOLYLINE
  5
49E1
330
18
100
AcDbEntity
  8
A-MTL_GRID
100
AcDbPolyline
 90
        4
 70
     1
 43
0.0
 10
1564.85133572285
 20
1005.45431623341
 10
1564.833567701956
 20
1005.45431623341
 10
1564.833567701956
 20
1005.079316233411
 10
1564.85133572285
 20
1005.079316233411
  0
LWPOLYLINE
  5
49E2
330
18
100
AcDbEntity
  8
A-MTL_GRID
100
AcDbPolyline
 90
        4
 70
     1
 43
0.0
 10
1564.85133572285
 20
1002.579316233411
 10
1564.833567701956
 20
1002.579316233411
 10
1564.833567701956
 20
1002.204316233411
 10
1564.85133572285
 20
1002.204316233411
  0
LWPOLYLINE
  5
49E3
330
18
100
AcDbEntity
  8
A-MTL_GRID
100
AcDbPolyline
 90
        4
 70
     1
 43
0.0
 10
1564.85133572285
 20
999.7043162334106
 10
1564.833567701956
 20
999.7043162334106
 10
1564.833567701956
 20
999.3293162334106
 10
1564.85133572285
 20
999.3293162334106
  0
LWPOLYLINE
  5
49E5
330
18
100
AcDbEntity
  8
A-MTL_GRID
100
AcDbPolyline
 90
        5
 70
     0
 43
0.0
 10
1564.841708775297
 20
1003.079316233411
 10
1564.841112681426
 20
1003.083404645465
 42
0.2963606241459967
 10
1564.811657710128
 20
1003.11691976828
 42
-0.3172475355618613
 10
1564.750232660408
 20
1003.192440462176
 10
1564.750232660408
 20
1003.214652463094
  0
LWPOLYLINE
  5
49E6
330
18
100
AcDbEntity
  8
A-MTL_GRID
100
AcDbPolyline
 90
        5
 70
     0
 43
0.0
 10
1564.841708775297
 20
1000.204316233411
 10
1564.841112681426
 20
1000.208404645465
 42
0.2963606241459967
 10
1564.811657710128
 20
1000.24191976828
 42
-0.3172475355618613
 10
1564.750232660408
 20
1000.317440462176
 10
1564.750232660408
 20
1000.339652463094
  0
LINE
  5
49EA
330
18
100
AcDbEntity
  8
A-BRICK
100
AcDbLine
 10
1565.241708775297
 20
1006.111329931646
 30
0.0
 11
1565.241708775297
 21
998.4937594355537
 31
0.0
  0
LINE
  5
49EC
330
18
100
AcDbEntity
  8
A-BACKING
100
AcDbLine
 10
1564.208567701956
 20
1004.245138235885
 30
0.0
 11
1564.208567701956
 21
1005.856212333826
 31
0.0
  0
LINE
  5
49EE
330
18
100
AcDbEntity
  8
A-BACKING
100
AcDbLine
 10
1564.208567701956
 20
1004.245138235885
 30
0.0
 11
1563.810108717829
 21
1003.862235560917
 31
0.0
  0
LINE
  5
49F0
330
18
100
AcDbEntity
  8
A-BRICK
100
AcDbLine
 10
1565.241708775297
 20
1006.111329931646
 30
0.0
 11
1567.022350702838
 21
1006.781212333826
 31
0.0
  0
LWPOLYLINE
  5
49F1
330
18
100
AcDbEntity
  8
A-NOTE
100
AcDbPolyline
 90
        8
 70
     0
 43
0.0
 10
1563.228544393142
 20
998.4937594355537
 10
1566.571803201099
 20
998.4937594355537
 10
1566.571803201099
 20
998.4077791988386
 42
0.7512150810959911
 10
1566.664046561612
 20
998.3810303952666
 10
1566.806808260437
 20
998.6064884758399
 42
-0.7512150810961321
 10
1566.89905162095
 20
998.5797396722679
 10
1566.89905162095
 20
998.4937594355536
 10
1569.816651468591
 20
998.4937594355537
  0
LWPOLYLINE
  5
49F2
330
18
100
AcDbEntity
  8
A-BRICK
100
AcDbPolyline
 90
        3
 70
     0
 43
0.0
 10
1564.833567701958
 20
998.4937594355537
 10
1564.833567701958
 20
999.9386912334109
 10
1564.333567701958
 20
999.9386912334109
  0
HATCH
  5
49F7
330
18
100
AcDbEntity
  8
A-BACKING
100
AcDbHatch
 10
0.0
 20
0.0
 30
0.0
210
0.0
220
0.0
230
1.0
  2
ANSI31
 70
     0
 71
     0
 91
        1
 92
        1
 93
        4
 72
     1
 10
1565.091708775297
 20
998.4937594355537
 11
1565.166708775297
 21
998.4937594355537
 72
     1
 10
1565.166708775297
 20
998.4937594355537
 11
1565.166708775297
 21
1006.090700664852
 72
     1
 10
1565.166708775297
 20
1006.090700664852
 11
1565.091708775297
 21
1006.090700664852
 72
     1
 10
1565.091708775297
 20
1006.090700664852
 11
1565.091708775297
 21
998.4937594355537
 97
        0
 75
     0
 76
     1
 52
90.0
 41
1.0
 77
     0
 78
     1
 53
135.0
 43
1565.091708775297
 44
996.7453700123968
 45
-0.0883883476483184
 46
-0.0883883476483184
 79
     0
 98
        1
 10
1565.115957909122
 20
997.2021881708982
1001
ACAD
1010
1565.197082348599
1020
1003.365996869635
1030
0.0
  0
LINE
  5
49F8
330
18
100
AcDbEntity
  8
A-BACKING
100
AcDbLine
 10
1565.091708775297
 20
1006.090700664853
 30
0.0
 11
1565.091708775297
 21
998.4937594355537
 31
0.0
  0
LINE
  5
49FA
330
18
100
AcDbEntity
  8
A-BACKING
100
AcDbLine
 10
1565.166708775297
 20
1006.090700664852
 30
0.0
 11
1565.166708775297
 21
998.4937594355537
 31
0.0
  0
LINE
  5
49FB
330
18
100
AcDbEntity
  8
A-BACKING
100
AcDbLine
 10
1565.091708775297
 20
1006.090700664853
 30
0.0
 11
1565.166708775296
 21
1006.090700664853
 31
0.0
  0
MTEXT
  5
4A05
330
18
100
AcDbEntity
  8
A-NOTE
100
AcDbMText
 10
1562.526736620067
 20
1005.640018002091
 30
0.0
 40
0.25
 41
3.796892913911051
 71
     3
 72
     5
  1
ALUMINUM CAP TO OVERLAP BRICK MIN 2"
  7
ROMANS
  0
LEADER
  5
4A06
330
18
100
AcDbEntity
  8
A-NOTE
100
AcDbLeader
  3
DIM-1
 76
     3
 10
1564.208567701956
 20
1005.525842929906
 30
0.0
 10
1563.3885619833
 20
1005.525842929906
 30
0.0
 10
1562.705460851652
 20
1005.525842929906
 30
0.0
 77
   256
1001
ACAD
1000
DSTYLE
1002
{
1070
     6
1000

1070
    77
1070
     0
1070
   147
1040
0.0625
1070
   341
1005
0
1002
}
  0
MTEXT
  5
4A0F
330
18
100
AcDbEntity
  8
A-NOTE
100
AcDbMText
 10
1562.526736620067
 20
1002.283276741699
 30
0.0
 40
0.25
 41
3.229579997254859
 71
     3
 72
     5
  1
\A1;1/2" THICK \PREAL BRICK
  7
ROMANS
  0
LEADER
  5
4A10
330
18
100
AcDbEntity
  8
A-NOTE
100
AcDbLeader
  3
DIM-1
 76
     3
 10
1564.330431370975
 20
1002.103809396684
 30
0.0
 10
1563.141805070125
 20
1002.103809396684
 30
0.0
 10
1562.724493646049
 20
1002.103809396684
 30
0.0
 77
   256
1001
ACAD
1000
DSTYLE
1002
{
1070
     6
1000

1070
    77
1070
     0
1070
   147
1040
0.0625
1070
   341
1005
0
1002
}
  0
MTEXT
  5
4A11
330
18
100
AcDbEntity
  8
A-NOTE
100
AcDbMText
 10
1562.526736620067
 20
1003.237572991371
 30
0.0
 40
0.25
 41
3.229579997254859
 71
     3
 72
     5
  1
\A1;BRICK-IT MORTAR
  7
ROMANS
  0
LEADER
  5
4A12
330
18
100
AcDbEntity
  8
A-NOTE
100
AcDbLeader
  3
DIM-1
 76
     3
 10
1564.405528397237
 20
1003.09222551432
 30
0.0
 10
1563.623609229606
 20
1003.09222551432
 30
0.0
 10
1562.724493646049
 20
1003.092225514321
 30
0.0
 77
   256
1001
ACAD
1000
DSTYLE
1002
{
1070
     6
1000

1070
    77
1070
     0
1070
   147
1040
0.0625
1070
   341
1005
0
1002
}
  0
MTEXT
  5
4A13
330
18
100
AcDbEntity
  8
A-NOTE
100
AcDbMText
 10
1562.526736620067
 20
1000.282238556648
 30
0.0
 40
0.25
 41
3.229579997254859
 71
     3
 72
     5
  1
\A1;PATENTED METAL GRID PANEL
  7
ROMANS
  0
LEADER
  5
4A14
330
18
100
AcDbEntity
  8
A-NOTE
100
AcDbLeader
  3
DIM-1
 76
     3
 10
1564.833908438152
 20
1000.146292294748
 30
0.0
 10
1563.192013894425
 20
1000.146292294748
 30
0.0
 10
1562.724493646049
 20
1000.146292294748
 30
0.0
 77
   256
1001
ACAD
1000
DSTYLE
1002
{
1070
     6
1000

1070
    77
1070
     0
1070
   147
1040
0.0625
1070
   341
1005
0
1002
}
  0
MTEXT
  5
4A15
330
18
100
AcDbEntity
  8
A-NOTE
100
AcDbMText
 10
1566.395467633411
 20
1003.008806934767
 30
0.0
 40
0.25
 41
2.547618775369983
 71
     1
 72
     5
  1
MOISTURE BARRIER
  7
ROMANS
  0
LEADER
  5
4A16
330
18
100
AcDbEntity
  8
A-NOTE
100
AcDbLeader
  3
DIM-1
 76
     3
 10
1565.166708775297
 20
1001.913779591809
 30
0.0
 10
1565.980126553554
 20
1002.471484310225
 30
0.0
 10
1566.269571928886
 20
1002.471484310225
 30
0.0
 77
   256
1001
ACAD
1000
DSTYLE
1002
{
1070
     6
1000

1070
    77
1070
     0
1070
   147
1040
0.0625
1070
   341
1005
0
1002
}
  0
MTEXT
  5
4A17
330
18
100
AcDbEntity
  8
A-NOTE
100
AcDbMText
 10
1566.395467633411
 20
1004.344310575373
 30
0.0
 40
0.25
 41
2.547618775369983
 71
     1
 72
     5
  1
WEEP SYSTEM \P(OPTIONAL)-PVC
  7
ROMANS
  0
LEADER
  5
4A18
330
18
100
AcDbEntity
  8
A-NOTE
100
AcDbLeader
  3
DIM-1
 76
     3
 10
1564.973675262696
 20
1002.984837235853
 30
0.0
 10
1565.732947272011
 20
1003.752065683923
 30
0.0
 10
1566.269571928886
 20
1003.752065683923
 30
0.0
 77
   256
211
-1.0
221
0.0
231
0.0
1001
ACAD
1000
DSTYLE
1002
{
1070
     6
1000

1070
    77
1070
     0
1070
   147
1040
0.0625
1070
   341
1005
0
1002
}
  0
MTEXT
  5
4A19
330
18
100
AcDbEntity
  8
A-NOTE
100
AcDbMText
 10
1566.395467633411
 20
1001.602090452832
 30
0.0
 40
0.25
 41
2.547618775369983
 71
     1
 72
     5
  1
BUILDING
  7
ROMANS
  0
LEADER
  5
4A1A
330
18
100
AcDbEntity
  8
A-NOTE
100
AcDbLeader
  3
DIM-1
 76
     3
 10
1565.241708775297
 20
1001.479173295059
 30
0.0
 10
1565.980126553554
 20
1001.479173295059
 30
0.0
 10
1566.269571928886
 20
1001.479173295059
 30
0.0
 77
   256
1001
ACAD
1000
DSTYLE
1002
{
1070
     6
1000

1070
    77
1070
     0
1070
   147
1040
0.0625
1070
   341
1005
0
1002
}
  0
MTEXT
  5
4A1B
330
18
100
AcDbEntity
  8
A-NOTE
100
AcDbMText
 10
1566.395467633411
 20
1033.801791688829
 30
0.0
 40
0.25
 41
2.547618775369983
 71
     1
 72
     5
  1
BUILDING
  7
ROMANS
  0
LEADER
  5
4A1C
330
18
100
AcDbEntity
  8
A-NOTE
100
AcDbLeader
  3
DIM-1
 76
     3
 10
1565.241708775297
 20
1033.678874531057
 30
0.0
 10
1565.980126553554
 20
1033.678874531057
 30
0.0
 10
1566.269571928886
 20
1033.678874531057
 30
0.0
 77
   256
1001
ACAD
1000
DSTYLE
1002
{
1070
     6
1000

1070
    77
1070
     0
1070
   147
1040
0.0625
1070
   341
1005
0
1002
}
  0
MTEXT
  5
4A2F
330
18
100
AcDbEntity
  8
A-NOTE
100
AcDbMText
 10
1559.77071128539
 20
1020.059970384292
 30
0.0
 40
0.1873125
 41
4.234512182257921
 71
     1
 72
     5
  1
\A1;{\LAVAILABLE IN TWO SIZES}
  7
ROMANS
  0
MTEXT
  5
4A30
330
18
100
AcDbEntity
  8
A-NOTE
100
AcDbMText
 10
1559.785146247518
 20
1019.72289691288
 30
0.0
 40
0.1873125
 41
4.234512182257921
 71
     1
 72
     5
  1
\A1;48"(W) x 8-1/4"(H) \P96"(W) X 8 1/4"(H)
  7
ROMANS
  0
MTEXT
  5
4A31
330
18
100
AcDbEntity
  8
A-NOTE
 62
     1
100
AcDbMText
 10
1559.799627776681
 20
1020.571288005306
 30
0.0
 40
0.21853125
 41
5.498346853854837
 71
     1
 72
     5
  1
BRICK-IT  DESIGNER METAL GRID PANEL
  7
ROMANS
  0
MTEXT
  5
4A32
330
18
100
AcDbEntity
  8
A-NOTE
100
AcDbMText
 10
1560.983062518179
 20
1020.571316897956
 30
0.0
 40
0.124875
 41
0.3242662609890827
 71
     1
 72
     5
  1
TM
  7
ROMANS
  0
HATCH
  5
4BCC
330
18
100
AcDbEntity
  8
A-HATCH
100
AcDbHatch
 10
0.0
 20
0.0
 30
0.0
210
0.0
220
0.0
230
1.0
  2
ANSI31
 70
     0
 71
     0
 91
        1
 92
        1
 93
        4
 72
     1
 10
1564.333567701958
 20
999.9386912334109
 11
1564.833567701958
 21
999.9386912334109
 72
     1
 10
1564.833567701958
 20
999.9386912334109
 11
1564.833567701958
 21
998.4937594355537
 72
     1
 10
1564.833567701958
 20
998.4937594355537
 11
1564.333567701958
 21
998.4937594355537
 72
     1
 10
1564.333567701958
 20
998.4937594355537
 11
1564.333567701958
 21
999.9386912334109
 97
        0
 75
     0
 76
     1
 52
0.0
 41
2.0
 77
     0
 78
     1
 53
45.0
 43
1564.333567701958
 44
998.4937594355537
 45
-0.1767766952966369
 46
0.1767766952966369
 79
     0
 98
        1
 10
0.0
 20
0.0
1001
ACAD
1010
1561.555376185298
1020
1000.73625036209
1030
0.0
  0
LINE
  5
4C40
330
18
100
AcDbEntity
  8
A-BACKING
100
AcDbLine
 10
1565.020805938453
 20
1005.764251558528
 30
0.0
 11
1565.020805938453
 21
998.4937594355537
 31
0.0
  0
LINE
  5
4C41
330
18
100
AcDbEntity
  8
A-BACKING
100
AcDbLine
 10
1564.951244316923
 20
1005.764251558528
 30
0.0
 11
1564.951244316923
 21
998.4937594355537
 31
0.0
  0
LINE
  5
4C42
330
18
100
AcDbEntity
  8
A-BACKING
100
AcDbLine
 10
1565.020805938453
 20
1005.764251558528
 30
0.0
 11
1564.951244316923
 21
1005.764251558528
 31
0.0
  0
LINE
  5
4EC2
330
18
100
AcDbEntity
  8
A-MORTAR
100
AcDbLine
 10
1567.121912784725
 20
1008.781212333825
 30
0.0
 11
1569.121912784725
 21
1008.781212333825
 31
0.0
  0
LINE
  5
4EC3
330
18
100
AcDbEntity
  8
A-MORTAR
100
AcDbLine
 10
1569.121912784725
 20
1008.781212333825
 30
0.0
 11
1569.121912784725
 21
1007.014221922696
 31
0.0
  0
LINE
  5
4EC4
330
18
100
AcDbEntity
  8
A-MORTAR
100
AcDbLine
 10
1569.121912784725
 20
1007.014221922696
 30
0.0
 11
1567.121912784725
 21
1007.014221922696
 31
0.0
  0
LINE
  5
4EC5
330
18
100
AcDbEntity
  8
A-MORTAR
100
AcDbLine
 10
1567.121912784725
 20
1007.014221922696
 30
0.0
 11
1567.121912784725
 21
1008.781212333825
 31
0.0
  0
LINE
  5
4EC6
330
18
100
AcDbEntity
  8
A-BACKING
100
AcDbLine
 10
1566.999615828964
 20
1006.906212333826
 30
0.0
 11
1568.241708775297
 21
1006.906212333826
 31
0.0
  0
LINE
  5
4EC7
330
18
100
AcDbEntity
  8
A-BACKING
100
AcDbLine
 10
1564.208567701956
 20
1005.856212333826
 30
0.0
 11
1566.999615828964
 21
1006.906212333826
 31
0.0
  0
VIEWPORT
  5
172
102
{ACAD_XDICTIONARY
360
516A
102
}
330
15
100
AcDbEntity
 67
     1
  8
0
100
AcDbViewport
 10
4.250000059375441
 20
5.500000076838797
 30
0.0
 40
22.95809512057801
 41
11.08672568164622
 68
     1
 69
     1
1001
ACAD
1000
MVIEW
1002
{
1070
    16
1010
0.0
1020
0.0
1030
0.0
1010
0.0
1020
0.0
1030
1.0
1040
0.0
1040
11.08672568164622
1040
4.250000059375441
1040
5.500000076838797
1040
50.0
1040
0.0
1040
0.0
1070
     0
1070
  1000
1070
     1
1070
     1
1070
     0
1070
     0
1070
     0
1070
     0
1040
0.0
1040
0.0
1040
0.0
1040
0.5
1040
0.5
1040
0.5
1040
0.5
1070
     0
1002
{
1002
}
1002
}
  0
IMAGE
  5
3700
330
15
100
AcDbEntity
 67
     1
  8
A-TITLE
 92
        8
310
0800000000000000
100
AcDbRasterImage
 90
        0
 10
6.612087911465813
 20
0.4412436629029195
 30
0.0
 11
0.001258057909869868
 21
0.0
 31
0.0
 12
7.703382962320721E-20
 22
0.001258057909869869
 32
0.0
 13
1251.0
 23
634.0
340
36FE
 70
     7
280
     0
281
    50
282
    50
283
     0
360
36FF
 71
     1
 91
        2
 14
-0.5
 24
-0.5
 14
1250.5
 24
633.5
  0
TEXT
  5
3762
330
15
100
AcDbEntity
 67
     1
  8
A-NOTE
100
AcDbText
 10
5.92314221701778
 20
-21.15311670196458
 30
0.0
 40
0.25
  1

 50
270.0
  7
ROMANT
100
AcDbText
  0
LWPOLYLINE
  5
3763
330
15
100
AcDbEntity
 67
     1
  8
DEFPOINTS
100
AcDbPolyline
 90
        4
 70
     1
 43
0.0
 10
-0.0000000000000002
 20
0.0
 10
8.5
 20
-0.0000000000000053
 10
8.500000000000002
 20
10.99999999999999
 10
0.0000000000000036
 20
11.0
  0
LWPOLYLINE
  5
3764
330
15
100
AcDbEntity
 67
     1
  8
A1
100
AcDbPolyline
 90
        4
 70
     1
 43
0.0
 10
0.2499999999999998
 20
0.375
 10
8.25
 20
0.3749999999999947
 10
8.250000000000002
 20
10.62499999999999
 10
0.2500000000000035
 20
10.625
  0
LINE
  5
3774
330
15
100
AcDbEntity
 67
     1
  8
A1
100
AcDbLine
 10
8.25
 20
1.313363193949991
 30
0.0
 11
0.25
 21
1.313363193949996
 31
0.0
  0
LINE
  5
377A
330
15
100
AcDbEntity
 67
     1
  8
A1
100
AcDbLine
 10
6.499153996313808
 20
0.3749999999999947
 30
0.0
 11
6.499153996313808
 21
1.313363193949992
 31
0.0
  0
VIEWPORT
  5
3792
102
{ACAD_XDICTIONARY
360
3793
102
}
330
15
100
AcDbEntity
 67
     1
  8
DEFPOINTS
100
AcDbViewport
 10
4.25
 20
5.969181596974989
 30
0.0
 40
8.0
 41
9.311636806049997
 68
     2
 69
     2
1001
ACAD
1000
MVIEW
1002
{
1070
    16
1010
0.0
1020
0.0
1030
0.0
1010
0.0
1020
0.0
1030
1.0
1040
0.0
1040
18.62327365109238
1040
1565.75701088273
1040
1003.430751986444
1040
50.0
1040
0.0
1040
0.0
1070
     0
1070
  5000
1070
     1
1070
     0
1070
     0
1070
     0
1070
     0
1070
     0
1040
0.0
1040
0.0
1040
0.0
1040
2.0
1040
2.0
1040
0.5
1040
0.5
1070
     0
1002
{
1002
}
1002
}
  0
LINE
  5
3B7A
330
15
100
AcDbEntity
 67
     1
  8
A1
100
AcDbLine
 10
0.2499999999999998
 20
0.708
 30
0.0
 11
6.499153996313808
 21
0.708
 31
0.0
  0
LINE
  5
3B7B
330
15
100
AcDbEntity
 67
     1
  8
A1
100
AcDbLine
 10
0.2499999999999998
 20
0.9159999999999999
 30
0.0
 11
6.499153996313808
 21
0.9159999999999999
 31
0.0
  0
LINE
  5
3B7C
330
15
100
AcDbEntity
 67
     1
  8
A1
100
AcDbLine
 10
3.374576998156903
 20
0.708
 30
0.0
 11
3.374576998156904
 21
0.3749999999999979
 31
0.0
  0
MTEXT
  5
3B7D
330
15
100
AcDbEntity
 67
     1
  8
A-NOTE
100
AcDbMText
 10
0.3006998111790509
 20
1.221361811478049
 30
0.0
 40
0.1875
 41
5.48741680826955
 71
     1
 72
     5
  1
BRICK-IT SILL DETAIL
  7
A
  0
MTEXT
  5
3B82
330
15
100
AcDbEntity
 67
     1
  8
A-NOTE
100
AcDbMText
 10
0.3082078248633806
 20
0.6534990150487534
 30
0.0
 40
0.1875
 41
2.983449020691481
 71
     1
 72
     5
  1
MOD4883-A5
  7
A
  0
MTEXT
  5
3B83
330
15
100
AcDbEntity
 67
     1
  8
A-NOTE
100
AcDbMText
 10
4.672633056487534
 20
0.6201147220973109
 30
0.0
 40
0.125
 41
1.408208086233465
 71
     1
 72
     5
  1
09062-MOD4883-A5-PG001
  7
A
  0
TEXT
  5
3B84
330
15
100
AcDbEntity
 67
     1
  8
A-NOTE
100
AcDbText
 10
0.2929968548725714
 20
0.7797463152543971
 30
0.0
 40
0.078125
  1
Scale: 1" = 2"
  7
A
 11
0.2929968548725714
 21
0.8188088152543971
 31
0.0
100
AcDbText
 73
     2
  0
TEXT
  5
3B85
330
15
100
AcDbEntity
 67
     1
  8
A-NOTE
100
AcDbText
 10
5.551176212856541
 20
0.7797463152543971
 30
0.0
 40
0.078125
  1
Date: 5-11-2010
  7
A
 11
5.551176212856541
 21
0.8188088152543971
 31
0.0
100
AcDbText
 73
     2
  0
ENDSEC
  0
SECTION
  2
OBJECTS
  0
DICTIONARY
  5
C
330
0
100
AcDbDictionary
  3
ABNSLEADERTOOLS
350
A04
  3
ACAD_COLOR
350
2069
  3
ACAD_GROUP
350
D
  3
ACAD_IMAGE_DICT
350
36F7
  3
ACAD_IMAGE_VARS
350
36F8
  3
ACAD_LAYOUT
350
B15
  3
ACAD_MATERIAL
350
203F
  3
ACAD_MLEADERSTYLE
350
208E
  3
ACAD_MLINESTYLE
350
1B
  3
ACAD_PLOTSETTINGS
350
B16
  3
ACAD_SCALELIST
350
206C
  3
ACAD_VISUALSTYLE
350
2058
  3
ACADDIM
350
3C8B
  3
ACDB_RECOMPOSE_DATA
350
209C
  3
ACDBHEADERROUNDTRIPXREC
350
5192
  3
ACDBVARIABLEDICTIONARY
350
B76
  3
AEC_PROPERTY_SET_DEFS
350
CAB
  3
AUXHDRRNDTRIPDATA
350
5162
  3
BNS_SELSET
350
102
  3
BNS_VARIABLES
350
21A
  3
DWGPROPS
350
51B7
  0
DICTIONARY
  5
51B8
330
8
100
AcDbDictionary
280
     1
  3
ACAD_XREC_ROUNDTRIP
360
51B9
  0
DICTIONARY
  5
C90
330
2
100
AcDbDictionary
280
     1
  3
ACAD_LAYERFILTERS
360
4273
  3
ACAD_LAYERSTATES
360
156B
  3
ACLYDICTIONARY
360
4272
  0
DICTIONARY
  5
2283
330
18
100
AcDbDictionary
280
     1
  3
ACAD_SORTENTS
360
2284
  0
DICTIONARY
  5
378F
330
15
100
AcDbDictionary
280
     1
  3
ACAD_SORTENTS
360
3790
  0
DICTIONARY
  5
516A
330
172
100
AcDbDictionary
280
     1
  3
ACAD_XREC_ROUNDTRIP
360
516B
  0
IMAGEDEF_REACTOR
  5
36FF
330
3700
100
AcDbRasterImageDefReactor
 90
        2
330
3700
  0
DICTIONARY
  5
3793
330
3792
100
AcDbDictionary
280
     1
  3
ACAD_XREC_ROUNDTRIP
360
518D
  3
ASDK_XREC_ANNOTATION_SCALE_INFO
360
3794
  0
XRECORD
  5
A04
102
{ACAD_REACTORS
330
C
102
}
330
C
100
AcDbXrecord
1001
AbnsLeaderTools
1071
 97072200
1070
     0
1070
     0
1070
     0
1070
     0
1070
     1
1070
     3
1070
     1
1070
     3
1070
     0
1070
     0
1070
     0
1070
     0
1071
        0
  0
DICTIONARY
  5
2069
102
{ACAD_REACTORS
330
C
102
}
330
C
100
AcDbDictionary
  0
DICTIONARY
  5
D
102
{ACAD_REACTORS
330
C
102
}
330
C
100
AcDbDictionary
  0
DICTIONARY
  5
36F7
102
{ACAD_REACTORS
330
C
102
}
330
C
100
AcDbDictionary
  3
BRICK-IT_LOGO
350
36FE
  0
RASTERVARIABLES
  5
36F8
102
{ACAD_REACTORS
330
C
102
}
330
C
100
AcDbRasterVariables
 90
        0
 70
     0
 71
     1
 72
     5
  0
DICTIONARY
  5
B15
102
{ACAD_REACTORS
330
C
102
}
330
C
100
AcDbDictionary
  0
DICTIONARY
  5
203F
102
{ACAD_REACTORS
330
C
102
}
330
C
100
AcDbDictionary
  3
BYBLOCK
350
2048
  3
BYLAYER
350
2040
  3
GLOBAL
350
2050
  0
DICTIONARY
  5
208E
102
{ACAD_REACTORS
330
C
102
}
330
C
100
AcDbDictionary
  3
STANDARD
350
208F
  0
DICTIONARY
  5
1B
102
{ACAD_REACTORS
330
C
102
}
330
C
100
AcDbDictionary
  3
STANDARD
350
1C
  0
DICTIONARY
  5
B16
102
{ACAD_REACTORS
330
C
102
}
330
C
100
AcDbDictionary
  3
8.5X11
350
2B7E
  3
PDF2436
350
270F
  3
PLOT2436
350
26FD
  3
PRINT11X17
350
2720
  0
DICTIONARY
  5
206C
102
{ACAD_REACTORS
330
C
102
}
330
C
100
AcDbDictionary
  3
*A1
350
3E5F
  3
*A10
350
3E77
  3
*A11
350
3E82
  3
*A12
350
3E68
  3
*A13
350
3E6D
  3
*A14
350
3E7A
  3
*A15
350
3E85
  3
*A16
350
3E6F
  3
*A17
350
3E71
  3
*A18
350
3E7D
  3
*A19
350
3E63
  3
*A2
350
3E70
  3
*A20
350
3E74
  3
*A21
350
3E80
  3
*A22
350
3E66
  3
*A23
350
3E76
  3
*A24
350
3E78
  3
*A25
350
3E83
  3
*A26
350
3E6B
  3
*A27
350
3E7B
  3
*A28
350
3E62
  3
*A29
350
3E6E
  3
*A3
350
3E7C
  3
*A30
350
3E7E
  3
*A31
350
3E64
  3
*A32
350
3E72
  3
*A33
350
3E81
  3
*A34
350
3E6A
  3
*A35
350
3E75
  3
*A36
350
3E84
  3
*A37
350
3E6C
  3
*A38
350
3E79
  3
*A39
350
3E86
  3
*A4
350
3E60
  3
*A40
350
3E61
  3
*A5
350
3E65
  3
*A6
350
3E73
  3
*A7
350
3E7F
  3
*A8
350
3E67
  3
*A9
350
3E69
  3
A0
350
206D
  3
A1
350
206E
  3
A2
350
206F
  3
A3
350
2070
  3
A4
350
2071
  3
A5
350
2072
  3
A6
350
2073
  3
A7
350
2074
  3
A8
350
2075
  3
A9
350
2076
  3
B0
350
2077
  3
B1
350
2078
  3
B2
350
2079
  3
B3
350
207A
  3
B4
350
207B
  3
B5
350
207C
  3
B6
350
207D
  3
B7
350
207E
  3
B8
350
207F
  3
B9
350
2080
  3
C0
350
2081
  3
C1
350
2082
  3
C2
350
2083
  3
C3
350
2084
  3
C4
350
2085
  3
C5
350
2086
  3
C6
350
2087
  3
C7
350
2088
  3
C8
350
2089
  3
C9
350
208A
  3
D0
350
208B
  3
D1
350
208C
  3
D2
350
208D
  0
DICTIONARY
  5
2058
102
{ACAD_REACTORS
330
C
102
}
330
C
100
AcDbDictionary
  3
2DWIREFRAME
350
205E
  3
3D_HIDDEN
350
2060
  3
3DWIREFRAME
350
205F
  3
BASIC
350
205D
  3
BRIGHTEN
350
2064
  3
COLORCHANGE
350
2068
  3
CONCEPTUAL
350
2061
  3
DIM
350
2063
  3
FACEPATTERN
350
2067
  3
FLAT
350
2059
  3
FLATWITHEDGES
350
205A
  3
GOURAUD
350
205B
  3
GOURAUDWITHEDGES
350
205C
  3
LINEPATTERN
350
2066
  3
REALISTIC
350
2062
  3
THICKEN
350
2065
  0
XRECORD
  5
3C8B
102
{ACAD_REACTORS
330
C
102
}
330
C
100
AcDbXrecord
 90
   990106
  3

 60
     4
 61
     0
 62
     1
 63
     3
 64
     0
 65
     0
 66
     0
 67
     3
 68
     1
 69
     0
 70
     0
 71
     0
 72
     0
 40
0.0
170
     0
  0
XRECORD
  5
209C
102
{ACAD_REACTORS
330
C
102
}
330
C
100
AcDbXrecord
 90
        1
330
206B
  0
DICTIONARY
  5
5192
102
{ACAD_REACTORS
330
C
102
}
330
C
100
AcDbDictionary
  3
CEPSNTYPE
350
519B
  3
COLORDICT
350
51B5
  3
DIMSTYLEDATA
350
51B1
  3
FINGERPRINTGUID
350
519C
  3
HYPERLINKBASE
350
5195
  3
INSUNITS
350
519A
  3
LAYOUTDICT
350
5197
  3
LWETCUNION
350
5199
  3
MATERIALDICT
350
51B6
  3
PLOTSETDICT
350
5198
  3
PSVPSCALE
350
519E
  3
PUCSBASE
350
51A1
  3
PUCSORGBACK
350
51A7
  3
PUCSORGBOTTOM
350
51A3
  3
PUCSORGFRONT
350
51A6
  3
PUCSORGLEFT
350
51A4
  3
PUCSORGRIGHT
350
51A5
  3
PUCSORGTOP
350
51A2
  3
PUCSORTHOREF
350
519F
  3
PUCSORTHOVIEW
350
51A0
  3
STYLESHEET
350
5196
  3
TSTACKALIGN
350
5193
  3
TSTACKSIZE
350
5194
  3
UCSBASE
350
51AA
  3
UCSORGBACK
350
51B0
  3
UCSORGBOTTOM
350
51AC
  3
UCSORGFRONT
350
51AF
  3
UCSORGLEFT
350
51AD
  3
UCSORGRIGHT
350
51AE
  3
UCSORGTOP
350
51AB
  3
UCSORTHOREF
350
51A8
  3
UCSORTHOVIEW
350
51A9
  3
VERSIONGUID
350
519D
  0
DICTIONARY
  5
B76
102
{ACAD_REACTORS
330
C
102
}
330
C
100
AcDbDictionary
  3
CANNOSCALE
350
51B3
  3
CMLEADERSTYLE
350
209E
  3
DIMASSOC
350
B77
  3
HIDETEXT
350
51B4
  3
INDEXCTL
350
226D
  3
LAYEREVAL
350
20A2
  3
LIGHTINGUNITS
350
20A1
  3
MSLTSCALE
350
209F
  3
SORTENTS
350
226C
  0
DICTIONARY
  5
CAB
102
{ACAD_REACTORS
330
C
102
}
330
C
100
AcDbDictionary
  0
XRECORD
  5
5162
102
{ACAD_REACTORS
330
C
102
}
330
C
100
AcDbXrecord
310
6400000000000000AE0000001B001A0002002F000000000015000900150009000501280A0501280A000000003B000000000000000000857800000000AE000000000000000000000000000000000000000000000000000000000000000000000057DB0678
  0
DICTIONARY
  5
102
102
{ACAD_REACTORS
330
C
102
}
330
C
100
AcDbDictionary
  3
BNS_SS01
350
986
  3
BNS_SS02
350
987
  0
DICTIONARY
  5
21A
102
{ACAD_REACTORS
330
C
102
}
330
C
100
AcDbDictionary
  3
BNS_EDITTIME_TOTAL
350
B10
  0
XRECORD
  5
51B7
102
{ACAD_REACTORS
330
C
102
}
330
C
100
AcDbXrecord
  1
DWGPROPS COOKIE
  2

  3

  4

  6

  7

  8
ed
  9

300
=
301
=
302
=
303
=
304
=
305
=
306
=
307
=
308
=
309
=
 40
0.0
 41
2455134.451364826
 42
2455328.660208507
  1

 90
        0
  0
XRECORD
  5
51B9
102
{ACAD_REACTORS
330
51B8
102
}
330
51B8
100
AcDbXrecord
102
VTR_0.000_0.000_1.000_1.000_VISUALSTYLE
340
205E
102
VTR_0.000_0.000_1.000_1.000_GRIDDISPLAY
 70
     3
102
VTR_0.000_0.000_1.000_1.000_GRIDMAJOR
 70
     5
102
VTR_0.000_0.000_1.000_1.000_DEFAULTLIGHTING
280
     1
102
VTR_0.000_0.000_1.000_1.000_DEFAULTLIGHTINGTYPE
 70
     1
102
VTR_0.000_0.000_1.000_1.000_BRIGHTNESS
141
0.0
102
VTR_0.000_0.000_1.000_1.000_CONTRAST
142
0.0
  0
DICTIONARY
  5
4273
102
{ACAD_REACTORS
330
C90
102
}
330
C90
100
AcDbDictionary
  0
DICTIONARY
  5
156B
102
{ACAD_REACTORS
330
C90
102
}
330
C90
100
AcDbDictionary
  0
DICTIONARY
  5
4272
102
{ACAD_REACTORS
330
C90
102
}
330
C90
100
AcDbDictionary
1001
ACAD
1000
<All
  0
SORTENTSTABLE
  5
2284
102
{ACAD_REACTORS
330
2283
102
}
330
2283
100
AcDbSortentsTable
330
18
331
2C61
  5
356E
331
42D9
  5
42E6
331
42DA
  5
42E7
331
42DB
  5
42E8
331
42DC
  5
42E9
331
42DD
  5
42EA
331
42DE
  5
42EB
331
42DF
  5
42EC
331
42E0
  5
42ED
331
42E1
  5
42EE
331
42E2
  5
42EF
331
42E3
  5
42F0
331
42E4
  5
42F1
331
42E5
  5
42F2
331
42E6
  5
42F3
331
42E7
  5
42F4
331
42E8
  5
42F5
331
42E9
  5
42F6
331
42EA
  5
42F7
331
42EB
  5
42F8
331
42EC
  5
42F9
331
42ED
  5
42FA
331
42EE
  5
42FB
331
42EF
  5
42FC
331
42F0
  5
42FD
331
42F1
  5
42FE
331
42F2
  5
42FF
331
42F3
  5
4300
331
42F4
  5
4301
331
42F5
  5
4302
331
42F6
  5
4303
331
42F7
  5
4304
331
42F8
  5
4305
331
42F9
  5
4306
331
42FA
  5
4307
331
42FB
  5
4308
331
42FC
  5
4309
331
42FD
  5
430A
331
42FE
  5
430B
331
42FF
  5
430C
331
4300
  5
430D
331
4301
  5
430E
331
4302
  5
430F
331
4303
  5
4310
331
4304
  5
4311
331
4305
  5
4312
331
4306
  5
4313
331
4307
  5
4314
331
4308
  5
4315
331
4309
  5
4316
331
430A
  5
4317
331
430B
  5
4318
331
430C
  5
4319
331
430D
  5
431A
331
430E
  5
431B
331
430F
  5
431C
331
4310
  5
431D
331
4311
  5
431E
331
4312
  5
431F
331
4313
  5
4320
331
4314
  5
4321
331
4315
  5
4322
331
4316
  5
4323
331
4317
  5
4324
331
4318
  5
4325
331
4319
  5
4326
331
431A
  5
4327
331
431B
  5
4328
331
431C
  5
4329
331
431D
  5
432A
331
431E
  5
432B
331
431F
  5
432C
331
4320
  5
432D
331
4321
  5
432E
331
4322
  5
432F
331
4323
  5
4330
331
4324
  5
4331
331
4325
  5
4332
331
4326
  5
4333
331
4327
  5
4334
331
4328
  5
4335
331
4329
  5
4336
331
432A
  5
4337
331
432B
  5
4338
331
432C
  5
4339
331
432D
  5
433A
331
432E
  5
433B
331
432F
  5
433C
331
4330
  5
433D
331
4331
  5
433E
331
4332
  5
433F
331
4333
  5
4340
331
4334
  5
4341
331
4335
  5
4342
331
4336
  5
4343
331
4337
  5
4344
331
4338
  5
4345
331
4339
  5
4346
331
433A
  5
4347
331
433B
  5
4348
331
433C
  5
4349
331
433D
  5
434A
331
433E
  5
434B
331
433F
  5
434C
331
4340
  5
434D
331
4341
  5
434E
331
4342
  5
434F
331
4343
  5
4350
331
4344
  5
4351
331
4345
  5
4352
331
4346
  5
4353
331
4347
  5
4354
331
4348
  5
4355
331
4349
  5
4356
331
434A
  5
4357
331
434B
  5
4358
331
434C
  5
4359
331
434D
  5
435A
331
434E
  5
435B
331
434F
  5
435C
331
4350
  5
435D
331
4351
  5
435E
331
4352
  5
435F
331
4353
  5
4360
331
4354
  5
4361
331
4355
  5
4362
331
4356
  5
4363
331
4357
  5
4364
331
4358
  5
4365
331
4359
  5
4366
331
435A
  5
4367
331
435B
  5
4368
331
435C
  5
4369
331
435D
  5
436A
331
435E
  5
436B
331
435F
  5
436C
331
4360
  5
436D
331
4361
  5
436E
331
4362
  5
436F
331
4363
  5
4370
331
4364
  5
4371
331
4365
  5
4372
331
4366
  5
4373
331
4367
  5
4374
331
4368
  5
4375
331
4369
  5
4376
331
436A
  5
4377
331
436B
  5
4378
331
436C
  5
4379
331
436D
  5
437A
331
436E
  5
437B
331
436F
  5
437C
331
4370
  5
437D
331
4371
  5
437E
331
4372
  5
437F
331
4373
  5
4380
331
4374
  5
4381
331
4375
  5
4382
331
4376
  5
4383
331
4377
  5
4384
331
4378
  5
4385
331
4379
  5
4386
331
437A
  5
4387
331
437B
  5
4388
331
437C
  5
4389
331
437D
  5
438A
331
437E
  5
438B
331
437F
  5
438C
331
4380
  5
438D
331
4381
  5
438E
331
4382
  5
438F
331
4383
  5
4390
331
4384
  5
4391
331
4385
  5
4392
331
4386
  5
4393
331
4387
  5
4394
331
4388
  5
4395
331
4389
  5
4396
331
438A
  5
4397
331
438B
  5
4398
331
438C
  5
4399
331
438D
  5
439A
331
438E
  5
439B
331
438F
  5
439C
331
4390
  5
439D
331
4391
  5
439E
331
4392
  5
439F
331
4393
  5
43A0
331
4394
  5
43A1
331
4395
  5
43A2
331
4396
  5
43A3
331
4397
  5
43A4
331
4398
  5
43A5
331
4399
  5
43A6
331
439A
  5
43A7
331
439B
  5
43A8
331
439C
  5
43A9
331
439D
  5
43AA
331
439E
  5
43AB
331
439F
  5
43AC
331
43A0
  5
43AD
331
43A1
  5
43AE
331
43A2
  5
43AF
331
43A3
  5
43B0
331
43A4
  5
43B1
331
43A5
  5
43B2
331
43A6
  5
43B3
331
43A7
  5
43B4
331
43A8
  5
43B5
331
43A9
  5
43B6
331
43AA
  5
43B7
331
43AB
  5
43B8
331
43AC
  5
43B9
331
43AD
  5
43BA
331
43AE
  5
43BB
331
43AF
  5
43BC
331
43B0
  5
43BD
331
43B1
  5
43BE
331
43B2
  5
43BF
331
43B3
  5
43C0
331
43B4
  5
43C1
331
43B5
  5
43C2
331
43B6
  5
43C3
331
43B7
  5
43C4
331
43B8
  5
43C5
331
43B9
  5
43C6
331
43BA
  5
43C7
331
43BB
  5
43C8
331
43BC
  5
43C9
331
43BD
  5
43CA
331
43BE
  5
43CB
331
43BF
  5
43CC
331
43C0
  5
43CD
331
43C1
  5
43CE
331
43C2
  5
43CF
331
43C3
  5
43D0
331
43C4
  5
43D1
331
43C5
  5
43D2
331
43C6
  5
43D3
331
43C7
  5
43D4
331
43C8
  5
43D5
331
43C9
  5
43D6
331
43CA
  5
43D7
331
43CB
  5
43D8
331
43CC
  5
43D9
331
43CD
  5
43DA
331
43CE
  5
43DB
331
43CF
  5
43DC
331
43D0
  5
43DD
331
43D1
  5
43DE
331
43D2
  5
43DF
331
43D3
  5
43E0
331
43D4
  5
43E1
331
43D5
  5
43E2
331
43D6
  5
43E3
331
43D7
  5
43E4
331
43D8
  5
43E5
331
43D9
  5
43E6
331
43DA
  5
43E7
331
43DB
  5
43E8
331
43DC
  5
43E9
331
43DD
  5
43EA
331
43DE
  5
43EB
331
43DF
  5
43EC
331
43E0
  5
43ED
331
43E1
  5
43EE
331
43E2
  5
43EF
331
43E3
  5
43F0
331
43E4
  5
43F1
331
43E5
  5
43F2
331
43E6
  5
43F3
331
43E7
  5
43F4
331
43E8
  5
43F9
331
43E9
  5
43FA
331
43EA
  5
43FE
331
43EB
  5
43FF
331
43EC
  5
4400
331
46F5
  5
46F5
331
46F6
  5
46F6
331
46F7
  5
46F7
331
46F8
  5
46F8
331
46F9
  5
46F9
331
46FA
  5
46FA
331
46FB
  5
46FB
331
46FC
  5
46FC
331
46FD
  5
46FD
331
46FE
  5
46FE
331
46FF
  5
46FF
331
4700
  5
4700
331
4701
  5
4701
331
4702
  5
4702
331
4703
  5
4703
331
4704
  5
4704
331
4705
  5
4705
331
4706
  5
4706
331
4707
  5
4707
331
4708
  5
4708
331
4709
  5
4709
331
470A
  5
470A
331
4712
  5
4719
331
4713
  5
4755
331
4714
  5
4756
331
4715
  5
4757
331
4716
  5
4758
331
4717
  5
475A
331
4718
  5
475C
331
4719
  5
475E
331
4756
  5
475F
331
4757
  5
4760
331
4758
  5
4761
331
475A
  5
4762
331
475B
  5
4763
331
475C
  5
4764
331
475D
  5
4765
331
475E
  5
4775
331
476E
  5
480D
331
4846
  5
484C
331
4850
  5
485B
331
4851
  5
485C
331
4852
  5
485D
331
4853
  5
485F
331
4854
  5
4861
331
4855
  5
48D1
331
485A
  5
48D2
331
485B
  5
48DE
331
485C
  5
485A
331
485D
  5
4855
331
485F
  5
48DF
331
4861
  5
48E0
331
48D1
  5
48E1
331
48D2
  5
48E2
331
48DE
  5
48E3
331
48DF
  5
48F9
331
48E0
  5
48FA
331
48E1
  5
48FB
331
48E2
  5
48FC
331
48E3
  5
490F
331
48F9
  5
4942
331
48FA
  5
4945
331
48FB
  5
4947
331
4945
  5
494C
331
494B
  5
4853
331
494C
  5
494D
331
494D
  5
494E
331
494E
  5
4980
331
4980
  5
4983
331
4989
  5
475B
331
49B2
  5
49B2
331
49B3
  5
49B3
331
49B7
  5
49B8
331
49BA
  5
49C6
331
49BB
  5
49C8
331
49BC
  5
49C9
331
49BE
  5
49CA
331
49BF
  5
49CC
331
49C0
  5
49CD
331
49C4
  5
49CE
331
49C6
  5
49CF
331
49C7
  5
49D1
331
49C9
  5
49D2
331
49CA
  5
49D3
331
49CB
  5
49D4
331
49CC
  5
49D5
331
49CD
  5
49D6
331
49CE
  5
49D7
331
49CF
  5
49D8
331
49D0
  5
49D9
331
49D1
  5
49DA
331
49D2
  5
49DB
331
49D3
  5
49DC
331
49D4
  5
49DD
331
49D5
  5
49DE
331
49D6
  5
49E1
331
49D7
  5
49E2
331
49D8
  5
49E3
331
49D9
  5
49E4
331
49DA
  5
49E5
331
49DB
  5
49E6
331
49DC
  5
49EC
331
49DD
  5
49EE
331
49DE
  5
49F0
331
49E1
  5
49F1
331
49E2
  5
49F2
331
49E3
  5
49F7
331
49E5
  5
49F8
331
49E6
  5
49FA
331
49EA
  5
49FB
331
49EC
  5
4A00
331
49EE
  5
4A05
331
49F0
  5
49BC
331
49F1
  5
4A06
331
49F2
  5
49D0
331
49F7
  5
4A0F
331
49F8
  5
4A10
331
49FA
  5
4A11
331
49FB
  5
4A12
331
4A05
  5
4A13
331
4A06
  5
4A14
331
4A0F
  5
4A15
331
4A10
  5
4A16
331
4A11
  5
4A17
331
4A12
  5
4A18
331
4A13
  5
4A19
331
4A14
  5
4A1A
331
4A15
  5
4A1B
331
4A16
  5
4A1C
331
4A17
  5
4A2F
331
4A18
  5
4A30
331
4A19
  5
4A31
331
4A1A
  5
4A32
331
4A1B
  5
4BCB
331
4A1C
  5
4C40
331
4A2F
  5
4C41
331
4A30
  5
4C42
331
4A31
  5
4EC2
331
4A32
  5
4EC3
331
4BCC
  5
4EC4
331
4C40
  5
4EC5
331
4C41
  5
4EC6
331
4C42
  5
4EC7
331
4EC2
  5
49BF
331
4EC3
  5
49C0
331
4EC4
  5
49C1
331
4EC5
  5
49C2
331
4EC6
  5
49B9
331
4EC7
  5
49BE
  0
SORTENTSTABLE
  5
3790
102
{ACAD_REACTORS
330
378F
102
}
330
378F
100
AcDbSortentsTable
330
15
331
172
  5
3700
331
3700
  5
3762
331
3762
  5
3763
331
3763
  5
3764
331
3764
  5
376A
331
3774
  5
3775
331
377A
  5
377F
331
3792
  5
172
331
3B7A
  5
3B7A
331
3B7B
  5
3B7B
331
3B7C
  5
3B7C
331
3B7D
  5
3B7D
331
3B82
  5
3B82
331
3B83
  5
3B83
331
3B84
  5
3B84
331
3B85
  5
3B85
  0
XRECORD
  5
516B
102
{ACAD_REACTORS
330
516A
102
}
330
516A
100
AcDbXrecord
102
VISUALSTYLE
340
205E
102
GRIDDISPLAY
 70
     0
102
GRIDMAJOR
 70
     5
102
DEFAULTLIGHTING
280
     1
102
DEFAULTLIGHTINGTYPE
 70
     1
102
BRIGHTNESS
141
0.0
102
CONTRAST
142
0.0
  0
XRECORD
  5
518D
102
{ACAD_REACTORS
330
3793
102
}
330
3793
100
AcDbXrecord
102
VISUALSTYLE
340
205E
102
GRIDDISPLAY
 70
     3
102
GRIDMAJOR
 70
     5
102
DEFAULTLIGHTING
280
     1
102
DEFAULTLIGHTINGTYPE
 70
     1
102
BRIGHTNESS
141
0.0
102
CONTRAST
142
0.0
  0
XRECORD
  5
3794
102
{ACAD_REACTORS
330
3793
102
}
330
3793
100
AcDbXrecord
 90
        1
340
206D
  0
IMAGEDEF
  5
36FE
102
{ACAD_REACTORS
330
36F7
330
36FF
102
}
330
36F7
100
AcDbRasterImageDef
 90
        0
  1
S:\proj\00_Brick It\Brick-It logo.jpg
 10
1251.0
 20
634.0
 11
0.3527777777777777
 21
0.3527777777777777
280
     1
281
     5
  0
MATERIAL
  5
2048
102
{ACAD_REACTORS
330
203F
102
}
102
{ACAD_XDICTIONARY
360
51BA
102
}
330
203F
100
AcDbMaterial
  1
BYBLOCK
 72
     0
 73
     2
 43
0.0208333333333333
 43
0.0
 43
0.0
 43
0.0
 43
0.0
 43
0.0208333333333333
 43
0.0
 43
0.0
 43
0.0
 43
0.0
 43
1.0
 43
0.0
 43
0.0
 43
0.0
 43
0.0
 43
1.0
 77
     0
 78
     2
 47
0.0208333333333333
 47
0.0
 47
0.0
 47
0.0
 47
0.0
 47
0.0208333333333333
 47
0.0
 47
0.0
 47
0.0
 47
0.0
 47
1.0
 47
0.0
 47
0.0
 47
0.0
 47
0.0
 47
1.0
171
     0
172
     2
 49
0.0208333333333333
 49
0.0
 49
0.0
 49
0.0
 49
0.0
 49
0.0208333333333333
 49
0.0
 49
0.0
 49
0.0
 49
0.0
 49
1.0
 49
0.0
 49
0.0
 49
0.0
 49
0.0
 49
1.0
175
     0
176
     2
142
0.0208333333333333
142
0.0
142
0.0
142
0.0
142
0.0
142
0.0208333333333333
142
0.0
142
0.0
142
0.0
142
0.0
142
1.0
142
0.0
142
0.0
142
0.0
142
0.0
142
1.0
179
     0
270
     2
144
0.0208333333333333
144
0.0
144
0.0
144
0.0
144
0.0
144
0.0208333333333333
144
0.0
144
0.0
144
0.0
144
0.0
144
1.0
144
0.0
144
0.0
144
0.0
144
0.0
144
1.0
274
     2
147
0.0208333333333333
147
0.0
147
0.0
147
0.0
147
0.0
147
0.0208333333333333
147
0.0
147
0.0
147
0.0
147
0.0
147
1.0
147
0.0
147
0.0
147
0.0
147
0.0
147
1.0
  0
MATERIAL
  5
2040
102
{ACAD_REACTORS
330
203F
102
}
102
{ACAD_XDICTIONARY
360
51BC
102
}
330
203F
100
AcDbMaterial
  1
BYLAYER
 72
     0
 73
     2
 43
0.0208333333333333
 43
0.0
 43
0.0
 43
0.0
 43
0.0
 43
0.0208333333333333
 43
0.0
 43
0.0
 43
0.0
 43
0.0
 43
1.0
 43
0.0
 43
0.0
 43
0.0
 43
0.0
 43
1.0
 77
     0
 78
     2
 47
0.0208333333333333
 47
0.0
 47
0.0
 47
0.0
 47
0.0
 47
0.0208333333333333
 47
0.0
 47
0.0
 47
0.0
 47
0.0
 47
1.0
 47
0.0
 47
0.0
 47
0.0
 47
0.0
 47
1.0
171
     0
172
     2
 49
0.0208333333333333
 49
0.0
 49
0.0
 49
0.0
 49
0.0
 49
0.0208333333333333
 49
0.0
 49
0.0
 49
0.0
 49
0.0
 49
1.0
 49
0.0
 49
0.0
 49
0.0
 49
0.0
 49
1.0
175
     0
176
     2
142
0.0208333333333333
142
0.0
142
0.0
142
0.0
142
0.0
142
0.0208333333333333
142
0.0
142
0.0
142
0.0
142
0.0
142
1.0
142
0.0
142
0.0
142
0.0
142
0.0
142
1.0
179
     0
270
     2
144
0.0208333333333333
144
0.0
144
0.0
144
0.0
144
0.0
144
0.0208333333333333
144
0.0
144
0.0
144
0.0
144
0.0
144
1.0
144
0.0
144
0.0
144
0.0
144
0.0
144
1.0
274
     2
147
0.0208333333333333
147
0.0
147
0.0
147
0.0
147
0.0
147
0.0208333333333333
147
0.0
147
0.0
147
0.0
147
0.0
147
1.0
147
0.0
147
0.0
147
0.0
147
0.0
147
1.0
  0
MATERIAL
  5
2050
102
{ACAD_REACTORS
330
203F
102
}
102
{ACAD_XDICTIONARY
360
51BE
102
}
330
203F
100
AcDbMaterial
  1
GLOBAL
 72
     0
 73
     2
 43
0.0208333333333333
 43
0.0
 43
0.0
 43
0.0
 43
0.0
 43
0.0208333333333333
 43
0.0
 43
0.0
 43
0.0
 43
0.0
 43
1.0
 43
0.0
 43
0.0
 43
0.0
 43
0.0
 43
1.0
 77
     0
 78
     2
 47
0.0208333333333333
 47
0.0
 47
0.0
 47
0.0
 47
0.0
 47
0.0208333333333333
 47
0.0
 47
0.0
 47
0.0
 47
0.0
 47
1.0
 47
0.0
 47
0.0
 47
0.0
 47
0.0
 47
1.0
171
     0
172
     2
 49
0.0208333333333333
 49
0.0
 49
0.0
 49
0.0
 49
0.0
 49
0.0208333333333333
 49
0.0
 49
0.0
 49
0.0
 49
0.0
 49
1.0
 49
0.0
 49
0.0
 49
0.0
 49
0.0
 49
1.0
175
     0
176
     2
142
0.0208333333333333
142
0.0
142
0.0
142
0.0
142
0.0
142
0.0208333333333333
142
0.0
142
0.0
142
0.0
142
0.0
142
1.0
142
0.0
142
0.0
142
0.0
142
0.0
142
1.0
179
     0
270
     2
144
0.0208333333333333
144
0.0
144
0.0
144
0.0
144
0.0
144
0.0208333333333333
144
0.0
144
0.0
144
0.0
144
0.0
144
1.0
144
0.0
144
0.0
144
0.0
144
0.0
144
1.0
274
     2
147
0.0208333333333333
147
0.0
147
0.0
147
0.0
147
0.0
147
0.0208333333333333
147
0.0
147
0.0
147
0.0
147
0.0
147
1.0
147
0.0
147
0.0
147
0.0
147
0.0
147
1.0
  0
ACAD_PROXY_OBJECT
  5
208F
102
{ACAD_REACTORS
330
208E
102
}
330
208E
100
AcDbProxyObject
 90
      499
 91
      511
 93
      610
310
40901902A4063FBFFFFFE056BD1B81E855B9FC0AD7A3703D0AD73F4214DD185B99185C9900AD7A3703D0AC73F90141901A02B5E8DC0F42B1CFC02B5E8DC0F42B1CFE5764000000000000300FC0
340
12
340
0
340
F
340
0
 94
        0
1001
ACAD_MLEADERVER
1070
     2
  0
MLINESTYLE
  5
1C
102
{ACAD_REACTORS
330
1B
102
}
330
1B
100
AcDbMlineStyle
  2
STANDARD
 70
     0
  3

 62
   256
 51
90.0
 52
90.0
 71
     2
 49
0.5
 62
   256
  6
BYLAYER
 49
-0.5
 62
   256
  6
BYLAYER
  0
PLOTSETTINGS
  5
2B7E
102
{ACAD_REACTORS
330
B16
102
}
330
B16
100
AcDbPlotSettings
  1
8.5x11
  2
Kyocera Mita KM-1650 KX
  4
Letter
  6

 40
4.984749794006348
 41
5.069418907165527
 42
5.06939697265625
 43
4.9847412109375
 44
215.8999938964844
 45
279.3999938964844
 46
-5.027076435089054
 47
-5.02708311080938
 48
0.0000000000000036
 49
-0.0000000000000053
140
8.5
141
11.0
142
1.0
143
1.0
 70
  2724
 72
     0
 73
     0
 74
     4
  7
SWAN11X17.ctb
 75
     0
147
0.7367424736214094
148
-0.0000000000000902
149
0.0000000000001354
1001
ACAD_PSEXT
1000
Kyocera Mita KM-1650 KX
1000
Kyocera Mita KM-1650 KX
1000
IP_192.168.1.188
1000

1070
     0
  0
PLOTSETTINGS
  5
270F
102
{ACAD_REACTORS
330
B16
102
}
330
B16
100
AcDbPlotSettings
  1
PDF2436
  2
PDF-XChange Lite 3.0.pc3
  4
User265
  6

 40
3.174999952316284
 41
3.174999952316284
 42
3.17498779296875
 43
3.17498779296875
 44
914.3999633789062
 45
609.5999755859375
 46
0.0
 47
0.0
 48
0.0
 49
0.0
140
36.00000000000001
141
24.0
142
1.0
143
1.0
 70
  2736
 72
     0
 73
     0
 74
     4
  7
swan2436.ctb
 75
    16
147
1.0
148
0.0
149
0.0
1001
ACAD_PSEXT
1000
PDF-XChange Lite 3.0.pc3
1000
PDF-XChange Lite 3.0
1000
PDF-XChange
1000

1070
     0
  0
PLOTSETTINGS
  5
26FD
102
{ACAD_REACTORS
330
B16
102
}
330
B16
100
AcDbPlotSettings
  1
PLOT2436
  2
HP DesignJet 500 42 by HP.pc3
  4
User1658
  6

 40
0.0
 41
0.0
 42
0.0
 43
0.0
 44
914.4000244140625
 45
609.6000366210938
 46
0.0
 47
0.0
 48
0.0
 49
0.0
140
36.00000000000001
141
24.0
142
1.0
143
1.0
 70
  2736
 72
     0
 73
     0
 74
     4
  7
swan2436.ctb
 75
    16
147
1.0
148
0.0
149
0.0
1001
ACAD_PSEXT
1000
HP DesignJet 500 42 by HP.pc3
1000
HP DesignJet 500 42 by HP
1000
\\SWAN2003
1000

1070
     0
  0
PLOTSETTINGS
  5
2720
102
{ACAD_REACTORS
330
B16
102
}
330
B16
100
AcDbPlotSettings
  1
PRINT11X17
  2
Kyocera Mita KM-1650 KX.pc3
  4
Tabloid
  6

 40
4.984749794006348
 41
5.069418907165527
 42
5.069427490234375
 43
4.9847412109375
 44
431.7999877929688
 45
279.3999938964844
 46
0.0
 47
0.0
 48
0.0
 49
0.0
140
36.00000000000001
141
24.0
142
1.0
143
2.263261292920465
 70
  2736
 72
     0
 73
     0
 74
     4
  7
Swan_Generic_Medium.ctb
 75
     0
147
0.4418402785078434
148
0.0
149
0.0
1001
ACAD_PSEXT
1000
Kyocera Mita KM-1650 KX.pc3
1000
Kyocera Mita KM-1650 KX
1000
IP_192.168.1.188
1000

1070
     0
  0
ACAD_PROXY_OBJECT
  5
3E5F
102
{ACAD_REACTORS
330
206C
102
}
330
206C
100
AcDbProxyObject
 90
      499
 91
      510
 93
       81
310
908313A315F58524546500
  0
ACAD_PROXY_OBJECT
  5
3E77
102
{ACAD_REACTORS
330
206C
102
}
330
206C
100
AcDbProxyObject
 90
      499
 91
      510
 93
      145
310
908383A315F585245460000000000000810100
  0
ACAD_PROXY_OBJECT
  5
3E82
102
{ACAD_REACTORS
330
206C
102
}
330
206C
100
AcDbProxyObject
 90
      499
 91
      510
 93
      185
310
90D343A315F585245465F585245460000000000000410100
1001
ACAD
1000
AcRTDxfName
1000
SCALE
1000
AcRTDxfName
1000
SCALE
1000
AcRTDxfName
1000
SCALE
1000
AcRTDxfName
1000
SCALE
1000
AcRTDxfName
1000
SCALE
1000
AcRTDxfName
1000
SCALE
  0
ACAD_PROXY_OBJECT
  5
3E68
102
{ACAD_REACTORS
330
206C
102
}
330
206C
100
AcDbProxyObject
 90
      499
 91
      510
 93
      193
310
90E313A31305F585245465F585245464000000000000244000
1001
ACAD
1000
AcRTDxfName
1000
SCALE
1000
AcRTDxfName
1000
SCALE
1000
AcRTDxfName
1000
SCALE
1000
AcRTDxfName
1000
SCALE
1000
AcRTDxfName
1000
SCALE
1000
AcRTDxfName
1000
SCALE
  0
ACAD_PROXY_OBJECT
  5
3E6D
102
{ACAD_REACTORS
330
206C
102
}
330
206C
100
AcDbProxyObject
 90
      499
 91
      510
 93
      153
310
909313A31305F585245464000000000000244000
  0
ACAD_PROXY_OBJECT
  5
3E7A
102
{ACAD_REACTORS
330
206C
102
}
330
206C
100
AcDbProxyObject
 90
      499
 91
      510
 93
      201
310
90F313A3130305F585245465F585245464000000000000594000
1001
ACAD
1000
AcRTDxfName
1000
SCALE
1000
AcRTDxfName
1000
SCALE
1000
AcRTDxfName
1000
SCALE
1000
AcRTDxfName
1000
SCALE
1000
AcRTDxfName
1000
SCALE
1000
AcRTDxfName
1000
SCALE
  0
ACAD_PROXY_OBJECT
  5
3E85
102
{ACAD_REACTORS
330
206C
102
}
330
206C
100
AcDbProxyObject
 90
      499
 91
      510
 93
      145
310
908323A315F585245460000000000000010100
  0
ACAD_PROXY_OBJECT
  5
3E6F
102
{ACAD_REACTORS
330
206C
102
}
330
206C
100
AcDbProxyObject
 90
      499
 91
      510
 93
      185
310
90D313A345F585245465F585245464000000000000104000
1001
ACAD
1000
AcRTDxfName
1000
SCALE
1000
AcRTDxfName
1000
SCALE
1000
AcRTDxfName
1000
SCALE
1000
AcRTDxfName
1000
SCALE
1000
AcRTDxfName
1000
SCALE
1000
AcRTDxfName
1000
SCALE
  0
ACAD_PROXY_OBJECT
  5
3E71
102
{ACAD_REACTORS
330
206C
102
}
330
206C
100
AcDbProxyObject
 90
      499
 91
      510
 93
      161
310
90A3130303A315F585245460000000000001650100
  0
ACAD_PROXY_OBJECT
  5
3E7D
102
{ACAD_REACTORS
330
206C
102
}
330
206C
100
AcDbProxyObject
 90
      499
 91
      510
 93
      145
310
908313A325F585245464000000000000004000
  0
ACAD_PROXY_OBJECT
  5
3E63
102
{ACAD_REACTORS
330
206C
102
}
330
206C
100
AcDbProxyObject
 90
      499
 91
      510
 93
      297
310
913312D312F3222203D2031272D30225F585245460000000000003E0FC000000000000284000
  0
ACAD_PROXY_OBJECT
  5
3E70
102
{ACAD_REACTORS
330
206C
102
}
330
206C
100
AcDbProxyObject
 90
      499
 91
      510
 93
      337
310
918312F31323822203D2031272D30225F585245465F58524546000000000000200FC000000000000284000
1001
ACAD
1000
AcRTDxfName
1000
SCALE
1000
AcRTDxfName
1000
SCALE
1000
AcRTDxfName
1000
SCALE
1000
AcRTDxfName
1000
SCALE
1000
AcRTDxfName
1000
SCALE
1000
AcRTDxfName
1000
SCALE
  0
ACAD_PROXY_OBJECT
  5
3E74
102
{ACAD_REACTORS
330
206C
102
}
330
206C
100
AcDbProxyObject
 90
      499
 91
      510
 93
      185
310
90D383A315F585245465F585245460000000000000810100
1001
ACAD
1000
AcRTDxfName
1000
SCALE
1000
AcRTDxfName
1000
SCALE
1000
AcRTDxfName
1000
SCALE
1000
AcRTDxfName
1000
SCALE
1000
AcRTDxfName
1000
SCALE
1000
AcRTDxfName
1000
SCALE
  0
ACAD_PROXY_OBJECT
  5
3E80
102
{ACAD_REACTORS
330
206C
102
}
330
206C
100
AcDbProxyObject
 90
      499
 91
      510
 93
      185
310
90D313A355F585245465F585245464000000000000144000
1001
ACAD
1000
AcRTDxfName
1000
SCALE
1000
AcRTDxfName
1000
SCALE
1000
AcRTDxfName
1000
SCALE
1000
AcRTDxfName
1000
SCALE
1000
AcRTDxfName
1000
SCALE
1000
AcRTDxfName
1000
SCALE
  0
ACAD_PROXY_OBJECT
  5
3E66
102
{ACAD_REACTORS
330
206C
102
}
330
206C
100
AcDbProxyObject
 90
      499
 91
      510
 93
      153
310
90931303A315F585245460000000000000910100
  0
ACAD_PROXY_OBJECT
  5
3E76
102
{ACAD_REACTORS
330
206C
102
}
330
206C
100
AcDbProxyObject
 90
      499
 91
      510
 93
      185
310
90D323A315F585245465F585245460000000000000010100
1001
ACAD
1000
AcRTDxfName
1000
SCALE
1000
AcRTDxfName
1000
SCALE
1000
AcRTDxfName
1000
SCALE
1000
AcRTDxfName
1000
SCALE
1000
AcRTDxfName
1000
SCALE
1000
AcRTDxfName
1000
SCALE
  0
ACAD_PROXY_OBJECT
  5
3E78
102
{ACAD_REACTORS
330
206C
102
}
330
206C
100
AcDbProxyObject
 90
      499
 91
      510
 93
      145
310
908313A345F585245464000000000000104000
  0
ACAD_PROXY_OBJECT
  5
3E83
102
{ACAD_REACTORS
330
206C
102
}
330
206C
100
AcDbProxyObject
 90
      499
 91
      510
 93
      153
310
909313A35305F585245464000000000000494000
  0
ACAD_PROXY_OBJECT
  5
3E6B
102
{ACAD_REACTORS
330
206C
102
}
330
206C
100
AcDbProxyObject
 90
      499
 91
      510
 93
      257
310
90E3120312F3222203D2031272D30220000000000003E0FC000000000000284000
  0
ACAD_PROXY_OBJECT
  5
3E7B
102
{ACAD_REACTORS
330
206C
102
}
330
206C
100
AcDbProxyObject
 90
      499
 91
      510
 93
      193
310
90E31303A315F585245465F585245460000000000000910100
1001
ACAD
1000
AcRTDxfName
1000
SCALE
1000
AcRTDxfName
1000
SCALE
1000
AcRTDxfName
1000
SCALE
1000
AcRTDxfName
1000
SCALE
1000
AcRTDxfName
1000
SCALE
1000
AcRTDxfName
1000
SCALE
  0
ACAD_PROXY_OBJECT
  5
3E62
102
{ACAD_REACTORS
330
206C
102
}
330
206C
100
AcDbProxyObject
 90
      499
 91
      510
 93
      145
310
908343A315F585245460000000000000410100
  0
ACAD_PROXY_OBJECT
  5
3E6E
102
{ACAD_REACTORS
330
206C
102
}
330
206C
100
AcDbProxyObject
 90
      499
 91
      510
 93
      153
310
909313A33305F5852454640000000000003E4000
  0
ACAD_PROXY_OBJECT
  5
3E7C
102
{ACAD_REACTORS
330
206C
102
}
330
206C
100
AcDbProxyObject
 90
      499
 91
      510
 93
      193
310
90E313A34305F585245465F585245464000000000000444000
1001
ACAD
1000
AcRTDxfName
1000
SCALE
1000
AcRTDxfName
1000
SCALE
1000
AcRTDxfName
1000
SCALE
1000
AcRTDxfName
1000
SCALE
1000
AcRTDxfName
1000
SCALE
1000
AcRTDxfName
1000
SCALE
  0
ACAD_PROXY_OBJECT
  5
3E7E
102
{ACAD_REACTORS
330
206C
102
}
330
206C
100
AcDbProxyObject
 90
      499
 91
      510
 93
      201
310
90F3130303A315F585245465F585245460000000000001650100
1001
ACAD
1000
AcRTDxfName
1000
SCALE
1000
AcRTDxfName
1000
SCALE
1000
AcRTDxfName
1000
SCALE
1000
AcRTDxfName
1000
SCALE
1000
AcRTDxfName
1000
SCALE
1000
AcRTDxfName
1000
SCALE
  0
ACAD_PROXY_OBJECT
  5
3E64
102
{ACAD_REACTORS
330
206C
102
}
330
206C
100
AcDbProxyObject
 90
      499
 91
      510
 93
      145
310
908313A355F585245464000000000000144000
  0
ACAD_PROXY_OBJECT
  5
3E72
102
{ACAD_REACTORS
330
206C
102
}
330
206C
100
AcDbProxyObject
 90
      499
 91
      510
 93
      185
310
90D313A385F585245465F585245464000000000000204000
1001
ACAD
1000
AcRTDxfName
1000
SCALE
1000
AcRTDxfName
1000
SCALE
1000
AcRTDxfName
1000
SCALE
1000
AcRTDxfName
1000
SCALE
1000
AcRTDxfName
1000
SCALE
1000
AcRTDxfName
1000
SCALE
  0
ACAD_PROXY_OBJECT
  5
3E81
102
{ACAD_REACTORS
330
206C
102
}
330
206C
100
AcDbProxyObject
 90
      499
 91
      510
 93
      193
310
90E313A35305F585245465F585245464000000000000494000
1001
ACAD
1000
AcRTDxfName
1000
SCALE
1000
AcRTDxfName
1000
SCALE
1000
AcRTDxfName
1000
SCALE
1000
AcRTDxfName
1000
SCALE
1000
AcRTDxfName
1000
SCALE
1000
AcRTDxfName
1000
SCALE
  0
ACAD_PROXY_OBJECT
  5
3E6A
102
{ACAD_REACTORS
330
206C
102
}
330
206C
100
AcDbProxyObject
 90
      499
 91
      510
 93
      161
310
90A313A3130305F585245464000000000000594000
  0
ACAD_PROXY_OBJECT
  5
3E75
102
{ACAD_REACTORS
330
206C
102
}
330
206C
100
AcDbProxyObject
 90
      499
 91
      510
 93
      337
310
918312D312F3222203D2031272D30225F585245465F585245460000000000003E0FC000000000000284000
1001
ACAD
1000
AcRTDxfName
1000
SCALE
1000
AcRTDxfName
1000
SCALE
1000
AcRTDxfName
1000
SCALE
1000
AcRTDxfName
1000
SCALE
1000
AcRTDxfName
1000
SCALE
1000
AcRTDxfName
1000
SCALE
  0
ACAD_PROXY_OBJECT
  5
3E84
102
{ACAD_REACTORS
330
206C
102
}
330
206C
100
AcDbProxyObject
 90
      499
 91
      510
 93
      153
310
909313A34305F585245464000000000000444000
  0
ACAD_PROXY_OBJECT
  5
3E6C
102
{ACAD_REACTORS
330
206C
102
}
330
206C
100
AcDbProxyObject
 90
      499
 91
      510
 93
      153
310
909313A31365F585245464000000000000304000
  0
ACAD_PROXY_OBJECT
  5
3E79
102
{ACAD_REACTORS
330
206C
102
}
330
206C
100
AcDbProxyObject
 90
      499
 91
      510
 93
      121
310
90D313A315F585245465F58524546500
1001
ACAD
1000
AcRTDxfName
1000
SCALE
1000
AcRTDxfName
1000
SCALE
1000
AcRTDxfName
1000
SCALE
1000
AcRTDxfName
1000
SCALE
1000
AcRTDxfName
1000
SCALE
1000
AcRTDxfName
1000
SCALE
  0
ACAD_PROXY_OBJECT
  5
3E86
102
{ACAD_REACTORS
330
206C
102
}
330
206C
100
AcDbProxyObject
 90
      499
 91
      510
 93
      297
310
913312F31323822203D2031272D30225F58524546000000000000200FC000000000000284000
  0
ACAD_PROXY_OBJECT
  5
3E60
102
{ACAD_REACTORS
330
206C
102
}
330
206C
100
AcDbProxyObject
 90
      499
 91
      510
 93
      185
310
90D313A325F585245465F585245464000000000000004000
1001
ACAD
1000
AcRTDxfName
1000
SCALE
1000
AcRTDxfName
1000
SCALE
1000
AcRTDxfName
1000
SCALE
1000
AcRTDxfName
1000
SCALE
1000
AcRTDxfName
1000
SCALE
1000
AcRTDxfName
1000
SCALE
  0
ACAD_PROXY_OBJECT
  5
3E61
102
{ACAD_REACTORS
330
206C
102
}
330
206C
100
AcDbProxyObject
 90
      499
 91
      510
 93
      297
310
9133120312F3222203D2031272D30225F585245460000000000003E0FC000000000000284000
1001
ACAD
1000
AcRTDxfName
1000
SCALE
1000
AcRTDxfName
1000
SCALE
1000
AcRTDxfName
1000
SCALE
1000
AcRTDxfName
1000
SCALE
1000
AcRTDxfName
1000
SCALE
  0
ACAD_PROXY_OBJECT
  5
3E65
102
{ACAD_REACTORS
330
206C
102
}
330
206C
100
AcDbProxyObject
 90
      499
 91
      510
 93
      153
310
909313A32305F585245464000000000000344000
  0
ACAD_PROXY_OBJECT
  5
3E73
102
{ACAD_REACTORS
330
206C
102
}
330
206C
100
AcDbProxyObject
 90
      499
 91
      510
 93
      193
310
90E313A32305F585245465F585245464000000000000344000
1001
ACAD
1000
AcRTDxfName
1000
SCALE
1000
AcRTDxfName
1000
SCALE
1000
AcRTDxfName
1000
SCALE
1000
AcRTDxfName
1000
SCALE
1000
AcRTDxfName
1000
SCALE
1000
AcRTDxfName
1000
SCALE
  0
ACAD_PROXY_OBJECT
  5
3E7F
102
{ACAD_REACTORS
330
206C
102
}
330
206C
100
AcDbProxyObject
 90
      499
 91
      510
 93
      193
310
90E313A33305F585245465F5852454640000000000003E4000
1001
ACAD
1000
AcRTDxfName
1000
SCALE
1000
AcRTDxfName
1000
SCALE
1000
AcRTDxfName
1000
SCALE
1000
AcRTDxfName
1000
SCALE
1000
AcRTDxfName
1000
SCALE
1000
AcRTDxfName
1000
SCALE
  0
ACAD_PROXY_OBJECT
  5
3E67
102
{ACAD_REACTORS
330
206C
102
}
330
206C
100
AcDbProxyObject
 90
      499
 91
      510
 93
      145
310
908313A385F585245464000000000000204000
  0
ACAD_PROXY_OBJECT
  5
3E69
102
{ACAD_REACTORS
330
206C
102
}
330
206C
100
AcDbProxyObject
 90
      499
 91
      510
 93
      193
310
90E313A31365F585245465F585245464000000000000304000
1001
ACAD
1000
AcRTDxfName
1000
SCALE
1000
AcRTDxfName
1000
SCALE
1000
AcRTDxfName
1000
SCALE
1000
AcRTDxfName
1000
SCALE
1000
AcRTDxfName
1000
SCALE
1000
AcRTDxfName
1000
SCALE
  0
ACAD_PROXY_OBJECT
  5
206D
102
{ACAD_REACTORS
330
206C
102
}
330
206C
100
AcDbProxyObject
 90
      499
 91
      510
 93
       41
310
903313A31580
  0
ACAD_PROXY_OBJECT
  5
206E
102
{ACAD_REACTORS
330
206C
102
}
330
206C
100
AcDbProxyObject
 90
      499
 91
      510
 93
      105
310
903313A324000000000000004000
  0
ACAD_PROXY_OBJECT
  5
206F
102
{ACAD_REACTORS
330
206C
102
}
330
206C
100
AcDbProxyObject
 90
      499
 91
      510
 93
      105
310
903313A344000000000000104000
  0
ACAD_PROXY_OBJECT
  5
2070
102
{ACAD_REACTORS
330
206C
102
}
330
206C
100
AcDbProxyObject
 90
      499
 91
      510
 93
      105
310
903313A354000000000000144000
  0
ACAD_PROXY_OBJECT
  5
2071
102
{ACAD_REACTORS
330
206C
102
}
330
206C
100
AcDbProxyObject
 90
      499
 91
      510
 93
      105
310
903313A384000000000000204000
  0
ACAD_PROXY_OBJECT
  5
2072
102
{ACAD_REACTORS
330
206C
102
}
330
206C
100
AcDbProxyObject
 90
      499
 91
      510
 93
      113
310
904313A31304000000000000244000
  0
ACAD_PROXY_OBJECT
  5
2073
102
{ACAD_REACTORS
330
206C
102
}
330
206C
100
AcDbProxyObject
 90
      499
 91
      510
 93
      113
310
904313A31364000000000000304000
  0
ACAD_PROXY_OBJECT
  5
2074
102
{ACAD_REACTORS
330
206C
102
}
330
206C
100
AcDbProxyObject
 90
      499
 91
      510
 93
      113
310
904313A32304000000000000344000
  0
ACAD_PROXY_OBJECT
  5
2075
102
{ACAD_REACTORS
330
206C
102
}
330
206C
100
AcDbProxyObject
 90
      499
 91
      510
 93
      113
310
904313A333040000000000003E4000
  0
ACAD_PROXY_OBJECT
  5
2076
102
{ACAD_REACTORS
330
206C
102
}
330
206C
100
AcDbProxyObject
 90
      499
 91
      510
 93
      113
310
904313A34304000000000000444000
  0
ACAD_PROXY_OBJECT
  5
2077
102
{ACAD_REACTORS
330
206C
102
}
330
206C
100
AcDbProxyObject
 90
      499
 91
      510
 93
      113
310
904313A35304000000000000494000
  0
ACAD_PROXY_OBJECT
  5
2078
102
{ACAD_REACTORS
330
206C
102
}
330
206C
100
AcDbProxyObject
 90
      499
 91
      510
 93
      121
310
905313A3130304000000000000594000
  0
ACAD_PROXY_OBJECT
  5
2079
102
{ACAD_REACTORS
330
206C
102
}
330
206C
100
AcDbProxyObject
 90
      499
 91
      510
 93
      105
310
903323A310000000000000010100
  0
ACAD_PROXY_OBJECT
  5
207A
102
{ACAD_REACTORS
330
206C
102
}
330
206C
100
AcDbProxyObject
 90
      499
 91
      510
 93
      105
310
903343A310000000000000410100
  0
ACAD_PROXY_OBJECT
  5
207B
102
{ACAD_REACTORS
330
206C
102
}
330
206C
100
AcDbProxyObject
 90
      499
 91
      510
 93
      105
310
903383A310000000000000810100
  0
ACAD_PROXY_OBJECT
  5
207C
102
{ACAD_REACTORS
330
206C
102
}
330
206C
100
AcDbProxyObject
 90
      499
 91
      510
 93
      113
310
90431303A310000000000000910100
  0
ACAD_PROXY_OBJECT
  5
207D
102
{ACAD_REACTORS
330
206C
102
}
330
206C
100
AcDbProxyObject
 90
      499
 91
      510
 93
      121
310
9053130303A310000000000001650100
  0
ACAD_PROXY_OBJECT
  5
207E
102
{ACAD_REACTORS
330
206C
102
}
330
206C
100
AcDbProxyObject
 90
      499
 91
      510
 93
      257
310
90E312F31323822203D2031272D3022000000000000200FC000000000000284000
  0
ACAD_PROXY_OBJECT
  5
207F
102
{ACAD_REACTORS
330
206C
102
}
330
206C
100
AcDbProxyObject
 90
      499
 91
      510
 93
      249
310
90D312F363422203D2031272D3022000000000000240FC000000000000284000
  0
ACAD_PROXY_OBJECT
  5
2080
102
{ACAD_REACTORS
330
206C
102
}
330
206C
100
AcDbProxyObject
 90
      499
 91
      510
 93
      249
310
90D312F333222203D2031272D3022000000000000280FC000000000000284000
  0
ACAD_PROXY_OBJECT
  5
2081
102
{ACAD_REACTORS
330
206C
102
}
330
206C
100
AcDbProxyObject
 90
      499
 91
      510
 93
      249
310
90D312F313622203D2031272D30220000000000002C0FC000000000000284000
  0
ACAD_PROXY_OBJECT
  5
2082
102
{ACAD_REACTORS
330
206C
102
}
330
206C
100
AcDbProxyObject
 90
      499
 91
      510
 93
      249
310
90D332F333222203D2031272D30220000000000002E0FC000000000000284000
  0
ACAD_PROXY_OBJECT
  5
2083
102
{ACAD_REACTORS
330
206C
102
}
330
206C
100
AcDbProxyObject
 90
      499
 91
      510
 93
      241
310
90C312F3822203D2031272D3022000000000000300FC000000000000284000
  0
ACAD_PROXY_OBJECT
  5
2084
102
{ACAD_REACTORS
330
206C
102
}
330
206C
100
AcDbProxyObject
 90
      499
 91
      510
 93
      249
310
90D332F313622203D2031272D3022000000000000320FC000000000000284000
  0
ACAD_PROXY_OBJECT
  5
2085
102
{ACAD_REACTORS
330
206C
102
}
330
206C
100
AcDbProxyObject
 90
      499
 91
      510
 93
      241
310
90C312F3422203D2031272D3022000000000000340FC000000000000284000
  0
ACAD_PROXY_OBJECT
  5
2086
102
{ACAD_REACTORS
330
206C
102
}
330
206C
100
AcDbProxyObject
 90
      499
 91
      510
 93
      241
310
90C332F3822203D2031272D3022000000000000360FC000000000000284000
  0
ACAD_PROXY_OBJECT
  5
2087
102
{ACAD_REACTORS
330
206C
102
}
330
206C
100
AcDbProxyObject
 90
      499
 91
      510
 93
      241
310
90C312F3222203D2031272D3022000000000000380FC000000000000284000
  0
ACAD_PROXY_OBJECT
  5
2088
102
{ACAD_REACTORS
330
206C
102
}
330
206C
100
AcDbProxyObject
 90
      499
 91
      510
 93
      241
310
90C332F3422203D2031272D30220000000000003A0FC000000000000284000
  0
ACAD_PROXY_OBJECT
  5
2089
102
{ACAD_REACTORS
330
206C
102
}
330
206C
100
AcDbProxyObject
 90
      499
 91
      510
 93
      161
310
90A3122203D2031272D30224000000000000284000
  0
ACAD_PROXY_OBJECT
  5
208A
102
{ACAD_REACTORS
330
206C
102
}
330
206C
100
AcDbProxyObject
 90
      499
 91
      510
 93
      257
310
90E312D312F3222203D2031272D30220000000000003E0FC000000000000284000
  0
ACAD_PROXY_OBJECT
  5
208B
102
{ACAD_REACTORS
330
206C
102
}
330
206C
100
AcDbProxyObject
 90
      499
 91
      510
 93
      225
310
90A3322203D2031272D302200000000000002100000000000000284000
  0
ACAD_PROXY_OBJECT
  5
208C
102
{ACAD_REACTORS
330
206C
102
}
330
206C
100
AcDbProxyObject
 90
      499
 91
      510
 93
      225
310
90A3622203D2031272D302200000000000006100000000000000284000
  0
ACAD_PROXY_OBJECT
  5
208D
102
{ACAD_REACTORS
330
206C
102
}
330
206C
100
AcDbProxyObject
 90
      499
 91
      510
 93
      249
310
90D31272D3022203D2031272D30220000000000000A100000000000000284000
  0
ACAD_PROXY_OBJECT
  5
205E
102
{ACAD_REACTORS
330
2058
102
}
330
2058
100
AcDbProxyObject
 90
      499
 91
      508
 93
      436
310
42CC9915DA5C99599C985B595049028333333333333E3BF0000000000000FB0107901411070040501600405405064090741402480A0340
1001
ACAD
1000
AcDbSavedByObjectVersion
1070
     0
  0
ACAD_PROXY_OBJECT
  5
2060
102
{ACAD_REACTORS
330
2058
102
}
330
2058
100
AcDbProxyObject
 90
      499
 91
      508
 93
      500
310
424CD108121A5919195B90640502408333333333333E3BF0000000000000FB01079024090700405020000000000001110200405405064090740C02480A0340
1001
ACAD
1000
AcDbSavedByObjectVersion
1070
     0
  0
ACAD_PROXY_OBJECT
  5
205F
102
{ACAD_REACTORS
330
2058
102
}
330
2058
100
AcDbProxyObject
 90
      499
 91
      508
 93
      436
310
42CCD915DA5C99599C985B595059028333333333333E3BF0000000000000FB0107901411070040501600405405064090741402480A0340
1001
ACAD
1000
AcDbSavedByObjectVersion
1070
     0
  0
ACAD_PROXY_OBJECT
  5
205D
102
{ACAD_REACTORS
330
2058
102
}
330
2058
100
AcDbProxyObject
 90
      499
 91
      508
 93
      388
310
4150985CDA58D07406404333333333333E3BF0000000000000FB0107A41107004050150841D405064090741402480A0350
1001
ACAD
1000
AcDbSavedByObjectVersion
1070
     0
  0
ACAD_PROXY_OBJECT
  5
2064
102
{ACAD_REACTORS
330
2058
102
}
330
2058
100
AcDbProxyObject
 90
      499
 91
      508
 93
      428
310
42109C9A59DA1D195B90C409028333333333333E3BF0000000000000FB010790141107004050150841D405064090741402480A029950
1001
ACAD
1000
AcDbSavedByObjectVersion
1070
     0
  0
ACAD_PROXY_OBJECT
  5
2068
102
{ACAD_REACTORS
330
2058
102
}
330
2058
100
AcDbProxyObject
 90
      499
 91
      508
 93
      452
310
42D0DBDB1BDC90DA185B99D95104090240C333333333333E3BF0000000000000FB0108901411070040501508421405064090741402480A0350
1001
ACAD
1000
AcDbSavedByObjectVersion
1070
     0
  0
ACAD_PROXY_OBJECT
  5
2061
102
{ACAD_REACTORS
330
2058
102
}
330
2058
100
AcDbProxyObject
 90
      499
 91
      508
 93
      500
310
4290DBDB98D95C1D1D585B10940D028333333333333E3BF0000000000000FB0107902409070040501000000000000111010841D405064090740C02480A0340
1001
ACAD
1000
AcDbSavedByObjectVersion
1070
     0
  0
ACAD_PROXY_OBJECT
  5
2063
102
{ACAD_REACTORS
330
2058
102
}
330
2058
100
AcDbProxyObject
 90
      499
 91
      508
 93
      412
310
40D11A5B50B409028333333333333E3BF0000000000000FB010790141107004050150841D405064090741402480A02677FFFFFD0
1001
ACAD
1000
AcDbSavedByObjectVersion
1070
     0
  0
ACAD_PROXY_OBJECT
  5
2067
102
{ACAD_REACTORS
330
2058
102
}
330
2058
100
AcDbProxyObject
 90
      499
 91
      508
 93
      444
310
42D19858D95C185D1D195C9B90F409028333333333333E3BF0000000000000FB010790141107004050150841D405064090741402480A0350
1001
ACAD
1000
AcDbSavedByObjectVersion
1070
     0
  0
ACAD_PROXY_OBJECT
  5
2059
102
{ACAD_REACTORS
330
2058
102
}
330
2058
100
AcDbProxyObject
 90
      499
 91
      508
 93
      388
310
41119B185D240901404333333333333E3BF0000000000000F9010740A41107004050150841D405064090741402480A1B50
1001
ACAD
1000
AcDbSavedByObjectVersion
1070
     0
  0
ACAD_PROXY_OBJECT
  5
205A
102
{ACAD_REACTORS
330
2058
102
}
330
2058
100
AcDbProxyObject
 90
      499
 91
      508
 93
      476
310
43519B185D15DA5D1A115919D95CD0140901404333333333333E3BF0000000000000F9010740901411070040501600405405064090741402480A1B50
1001
ACAD
1000
AcDbSavedByObjectVersion
1070
     0
  0
ACAD_PROXY_OBJECT
  5
205B
102
{ACAD_REACTORS
330
2058
102
}
330
2058
100
AcDbProxyObject
 90
      499
 91
      508
 93
      412
310
41D1DBDD5C985D5910240902404333333333333E3BF0000000000000F9010740A411070040501641D405064090741402480A1B50
1001
ACAD
1000
AcDbSavedByObjectVersion
1070
     0
  0
ACAD_PROXY_OBJECT
  5
205C
102
{ACAD_REACTORS
330
2058
102
}
330
2058
100
AcDbProxyObject
 90
      499
 91
      508
 93
      500
310
4411DBDD5C985D5915DA5D1A115919D95CD0340902404333333333333E3BF0000000000000F9010740901411070040501600405405064090741402480A1B50
1001
ACAD
1000
AcDbSavedByObjectVersion
1070
     0
  0
ACAD_PROXY_OBJECT
  5
2066
102
{ACAD_REACTORS
330
2058
102
}
330
2058
100
AcDbProxyObject
 90
      499
 91
      508
 93
      444
310
42D31A5B995C185D1D195C9B90E409028333333333333E3BF0000000000000FB010790141107004050750841D405064090741402483A0350
1001
ACAD
1000
AcDbSavedByObjectVersion
1070
     0
  0
ACAD_PROXY_OBJECT
  5
2062
102
{ACAD_REACTORS
330
2058
102
}
330
2058
100
AcDbProxyObject
 90
      499
 91
      508
 93
      420
310
425499585B1A5CDD1A58D08409028333333333333E3BF0000000000000FB01079019070040501508421405064090741402480A1B40
1001
ACAD
1000
AcDbSavedByObjectVersion
1070
     0
  0
ACAD_PROXY_OBJECT
  5
2065
102
{ACAD_REACTORS
330
2058
102
}
330
2058
100
AcDbProxyObject
 90
      499
 91
      508
 93
      412
310
41D51A1A58DAD95B90D409028333333333333E3BF0000000000000FB010790141107004050150C41D405064090741402480A0350
1001
ACAD
1000
AcDbSavedByObjectVersion
1070
     0
  0
XRECORD
  5
519B
102
{ACAD_REACTORS
330
5192
102
}
330
5192
100
AcDbXrecord
 90
        0
  0
XRECORD
  5
51B5
102
{ACAD_REACTORS
330
5192
102
}
330
5192
100
AcDbXrecord
340
2069
  0
XRECORD
  5
51B1
102
{ACAD_REACTORS
330
5192
102
}
330
5192
100
AcDbXrecord
1000
DSTYLE
1002
{
1070
    41
 40
0.125
1070
   343
340
55
1070
   344
340
55
1070
   141
 40
0.0625
1070
    46
 40
0.0625
1070
    43
 40
0.0625
1070
    44
 40
0.0625
1070
   147
 40
0.0625
1070
   277
 70
     4
1070
   173
 70
     1
1070
    40
 40
2.6
1070
    77
 70
     1
1070
    73
 70
     0
1070
   279
 70
     2
1070
    74
 70
     0
1070
   340
340
5E
1070
   140
 40
0.09375
1070
    78
 70
     3
1002
}
  0
XRECORD
  5
519C
102
{ACAD_REACTORS
330
5192
102
}
330
5192
100
AcDbXrecord
  1
{FE848CDE-04E3-4546-9EE7-23DCF3942B06}
  0
XRECORD
  5
5195
102
{ACAD_REACTORS
330
5192
102
}
330
5192
100
AcDbXrecord
  1

  0
XRECORD
  5
519A
102
{ACAD_REACTORS
330
5192
102
}
330
5192
100
AcDbXrecord
 90
        1
  0
XRECORD
  5
5197
102
{ACAD_REACTORS
330
5192
102
}
330
5192
100
AcDbXrecord
340
B15
  0
XRECORD
  5
5199
102
{ACAD_REACTORS
330
5192
102
}
330
5192
100
AcDbXrecord
 90
    10781
  0
XRECORD
  5
51B6
102
{ACAD_REACTORS
330
5192
102
}
330
5192
100
AcDbXrecord
340
203F
  0
XRECORD
  5
5198
102
{ACAD_REACTORS
330
5192
102
}
330
5192
100
AcDbXrecord
340
B16
  0
XRECORD
  5
519E
102
{ACAD_REACTORS
330
5192
102
}
330
5192
100
AcDbXrecord
 40
0.0
  0
XRECORD
  5
51A1
102
{ACAD_REACTORS
330
5192
102
}
330
5192
100
AcDbXrecord
340
0
  0
XRECORD
  5
51A7
102
{ACAD_REACTORS
330
5192
102
}
330
5192
100
AcDbXrecord
 10
0.0
 20
0.0
 30
0.0
  0
XRECORD
  5
51A3
102
{ACAD_REACTORS
330
5192
102
}
330
5192
100
AcDbXrecord
 10
0.0
 20
0.0
 30
0.0
  0
XRECORD
  5
51A6
102
{ACAD_REACTORS
330
5192
102
}
330
5192
100
AcDbXrecord
 10
0.0
 20
0.0
 30
0.0
  0
XRECORD
  5
51A4
102
{ACAD_REACTORS
330
5192
102
}
330
5192
100
AcDbXrecord
 10
0.0
 20
0.0
 30
0.0
  0
XRECORD
  5
51A5
102
{ACAD_REACTORS
330
5192
102
}
330
5192
100
AcDbXrecord
 10
0.0
 20
0.0
 30
0.0
  0
XRECORD
  5
51A2
102
{ACAD_REACTORS
330
5192
102
}
330
5192
100
AcDbXrecord
 10
0.0
 20
0.0
 30
0.0
  0
XRECORD
  5
519F
102
{ACAD_REACTORS
330
5192
102
}
330
5192
100
AcDbXrecord
340
0
  0
XRECORD
  5
51A0
102
{ACAD_REACTORS
330
5192
102
}
330
5192
100
AcDbXrecord
 70
     0
  0
XRECORD
  5
5196
102
{ACAD_REACTORS
330
5192
102
}
330
5192
100
AcDbXrecord
  1

  0
XRECORD
  5
5193
102
{ACAD_REACTORS
330
5192
102
}
330
5192
100
AcDbXrecord
 90
        1
  0
XRECORD
  5
5194
102
{ACAD_REACTORS
330
5192
102
}
330
5192
100
AcDbXrecord
 90
       70
  0
XRECORD
  5
51AA
102
{ACAD_REACTORS
330
5192
102
}
330
5192
100
AcDbXrecord
340
0
  0
XRECORD
  5
51B0
102
{ACAD_REACTORS
330
5192
102
}
330
5192
100
AcDbXrecord
 10
0.0
 20
0.0
 30
0.0
  0
XRECORD
  5
51AC
102
{ACAD_REACTORS
330
5192
102
}
330
5192
100
AcDbXrecord
 10
0.0
 20
0.0
 30
0.0
  0
XRECORD
  5
51AF
102
{ACAD_REACTORS
330
5192
102
}
330
5192
100
AcDbXrecord
 10
0.0
 20
0.0
 30
0.0
  0
XRECORD
  5
51AD
102
{ACAD_REACTORS
330
5192
102
}
330
5192
100
AcDbXrecord
 10
0.0
 20
0.0
 30
0.0
  0
XRECORD
  5
51AE
102
{ACAD_REACTORS
330
5192
102
}
330
5192
100
AcDbXrecord
 10
0.0
 20
0.0
 30
0.0
  0
XRECORD
  5
51AB
102
{ACAD_REACTORS
330
5192
102
}
330
5192
100
AcDbXrecord
 10
0.0
 20
0.0
 30
0.0
  0
XRECORD
  5
51A8
102
{ACAD_REACTORS
330
5192
102
}
330
5192
100
AcDbXrecord
340
0
  0
XRECORD
  5
51A9
102
{ACAD_REACTORS
330
5192
102
}
330
5192
100
AcDbXrecord
 70
     0
  0
XRECORD
  5
519D
102
{ACAD_REACTORS
330
5192
102
}
330
5192
100
AcDbXrecord
  1
{1D7F21D3-0639-4BE7-A8C6-D6EEA5321904}
  0
DICTIONARYVAR
  5
51B3
102
{ACAD_REACTORS
330
B76
102
}
330
B76
100
DictionaryVariables
280
     0
  1
1:1
  0
DICTIONARYVAR
  5
209E
102
{ACAD_REACTORS
330
B76
102
}
330
B76
100
DictionaryVariables
280
     0
  1
Standard
  0
DICTIONARYVAR
  5
B77
102
{ACAD_REACTORS
330
B76
102
}
330
B76
100
DictionaryVariables
280
     0
  1
1
  0
DICTIONARYVAR
  5
51B4
102
{ACAD_REACTORS
330
B76
102
}
330
B76
100
DictionaryVariables
280
     0
  1
1
  0
DICTIONARYVAR
  5
226D
102
{ACAD_REACTORS
330
B76
102
}
330
B76
100
DictionaryVariables
280
     0
  1
0
  0
DICTIONARYVAR
  5
20A2
102
{ACAD_REACTORS
330
B76
102
}
330
B76
100
DictionaryVariables
280
     0
  1
0
  0
DICTIONARYVAR
  5
20A1
102
{ACAD_REACTORS
330
B76
102
}
330
B76
100
DictionaryVariables
280
     0
  1
0
  0
DICTIONARYVAR
  5
209F
102
{ACAD_REACTORS
330
B76
102
}
330
B76
100
DictionaryVariables
280
     0
  1
0
  0
DICTIONARYVAR
  5
226C
102
{ACAD_REACTORS
330
B76
102
}
330
B76
100
DictionaryVariables
280
     0
  1
127
  0
XRECORD
  5
986
102
{ACAD_REACTORS
330
102
102
}
330
102
100
AcDbXrecord
330
0
330
0
330
0
330
0
330
0
330
0
330
0
330
0
330
0
330
0
330
0
330
0
330
0
330
0
330
0
330
0
330
0
330
0
330
0
330
0
330
0
330
0
330
0
330
0
330
0
330
0
330
0
330
0
330
0
330
0
330
0
330
0
330
0
330
0
330
0
330
0
330
0
330
0
330
0
330
0
330
0
330
0
330
0
330
0
330
0
330
0
330
0
330
0
330
0
330
0
330
0
330
0
330
0
330
0
330
0
330
0
330
0
330
0
330
0
330
0
330
0
330
0
330
0
330
0
330
0
330
0
330
0
330
0
330
0
330
0
330
0
330
0
330
0
330
0
330
0
330
0
330
0
330
0
330
0
330
0
330
0
330
0
330
0
330
0
330
0
330
0
330
0
330
0
330
0
330
0
330
0
330
0
330
0
330
0
330
0
330
0
330
0
330
0
330
0
330
0
330
0
330
0
330
0
330
0
330
0
330
0
330
0
330
0
330
0
330
0
330
0
330
0
330
0
330
0
330
0
330
0
330
0
330
0
330
0
330
0
330
0
330
0
330
0
330
0
330
0
330
0
330
0
330
0
330
0
330
0
330
0
330
0
330
0
330
0
330
0
330
0
330
0
330
0
330
0
330
0
330
0
330
0
330
0
330
0
330
0
330
0
330
0
330
0
330
0
330
0
330
0
330
0
330
0
330
0
330
0
330
0
330
0
330
0
330
0
330
0
330
0
330
0
330
0
330
0
330
0
330
0
330
0
330
0
330
0
330
0
330
0
330
0
330
0
330
0
330
0
  0
XRECORD
  5
987
102
{ACAD_REACTORS
330
102
102
}
330
102
100
AcDbXrecord
330
0
  0
XRECORD
  5
B10
102
{ACAD_REACTORS
330
21A
102
}
330
21A
100
AcDbXrecord
 40
0.0354262730106711
  0
DICTIONARY
  5
51BA
330
2048
100
AcDbDictionary
280
     1
  3
ACAD_XREC_ROUNDTRIP
360
51BB
  0
DICTIONARY
  5
51BC
330
2040
100
AcDbDictionary
280
     1
  3
ACAD_XREC_ROUNDTRIP
360
51BD
  0
DICTIONARY
  5
51BE
330
2050
100
AcDbDictionary
280
     1
  3
ACAD_XREC_ROUNDTRIP
360
51BF
  0
XRECORD
  5
51BB
102
{ACAD_REACTORS
330
51BA
102
}
330
51BA
100
AcDbXrecord
102
MATERIAL
148
0.0
149
0.0
149
0.0
 93
        0
 94
      127
282
     0
 72
     0
 77
     0
171
     0
175
     0
179
     0
273
     0
  0
XRECORD
  5
51BD
102
{ACAD_REACTORS
330
51BC
102
}
330
51BC
100
AcDbXrecord
102
MATERIAL
148
0.0
149
0.0
149
0.0
 93
        0
 94
      127
282
     0
 72
     0
 77
     0
171
     0
175
     0
179
     0
273
     0
  0
XRECORD
  5
51BF
102
{ACAD_REACTORS
330
51BE
102
}
330
51BE
100
AcDbXrecord
102
MATERIAL
148
0.0
149
0.0
149
0.0
 93
        0
 94
      127
282
     0
 72
     0
 77
     0
171
     0
175
     0
179
     0
273
     0
  0
ENDSEC
  0
EOF
